<?xml version="1.0" standalone="no"?><!DOCTYPE svg PUBLIC "-//W3C//DTD SVG 1.1//EN" "http://www.w3.org/Graphics/SVG/1.1/DTD/svg11.dtd" ><svg xmlns="http://www.w3.org/2000/svg"><metadata>Generated by Glyphter</metadata><defs><font id="alucoild" horiz-adv-x="0"><font-face units-per-em="1024" ascent="1024" descent="0" font-family="alucoild" font-weight="normal" /><missing-glyph horiz-adv-x="0" /><glyph unicode="&#x0041;" d="M734.769,551.385C734.769,551.385,551.385,551.385,551.385,551.385C551.385,551.385,551.385,734.769,551.385,734.769C551.385,756.431,533.662,774.154,512,774.154C490.338,774.154,472.615,756.431,472.615,734.769C472.615,734.769,472.615,551.385,472.615,551.385C472.615,551.385,289.231,551.385,289.231,551.385C267.569,551.385,249.846,536.615,249.846,512C249.846,487.385,268.308,472.615,289.231,472.615C289.231,472.615,472.615,472.615,472.615,472.615C472.615,472.615,472.615,289.231,472.615,289.231C472.615,265.846,489.846,249.846,512,249.846C534.154,249.846,551.385,267.569,551.385,289.231C551.385,289.231,551.385,472.615,551.385,472.615C551.385,472.615,734.769,472.615,734.769,472.615C756.431,472.615,774.154,490.338,774.154,512C774.154,533.662,756.431,551.385,734.769,551.385C734.769,551.385,734.769,551.385,734.769,551.385M512,955.077C630.4,955.077,741.662,909.046,825.354,825.354C909.046,741.662,955.077,630.4,955.077,512C955.077,393.6,909.046,282.338,825.354,198.646C741.662,114.954,630.4,68.923,512,68.923C393.6,68.923,282.338,114.954,198.646,198.646C114.954,282.338,68.923,393.6,68.923,512C68.923,630.4,114.954,741.662,198.646,825.354C282.338,909.046,393.6,955.077,512,955.077M512,1024C229.169,1024,0,794.831,0,512C0,229.169,229.169,0,512,0C794.831,0,1024,229.169,1024,512C1024,794.831,794.831,1024,512,1024C512,1024,512,1024,512,1024" class="icon-mas-outline"/><glyph unicode="&#x0042;" d="M512,1024C229.169,1024,0,794.831,0,512C0,229.169,229.169,0,512,0C794.831,0,1024,229.169,1024,512C1024,794.831,794.831,1024,512,1024C512,1024,512,1024,512,1024M734.769,472.615C734.769,472.615,551.385,472.615,551.385,472.615C551.385,472.615,551.385,289.231,551.385,289.231C551.385,267.569,533.662,249.846,512,249.846C501.169,249.846,491.323,254.277,484.185,261.415C477.046,268.554,472.615,278.4,472.615,289.231C472.615,289.231,472.615,472.615,472.615,472.615C472.615,472.615,289.231,472.615,289.231,472.615C278.4,472.615,268.554,477.046,261.415,484.185C254.277,491.323,249.846,501.169,249.846,512C249.846,533.662,267.569,551.385,289.231,551.385C289.231,551.385,472.615,551.385,472.615,551.385C472.615,551.385,472.615,734.769,472.615,734.769C472.615,756.431,490.338,774.154,512,774.154C533.662,774.154,551.385,756.431,551.385,734.769C551.385,734.769,551.385,551.385,551.385,551.385C551.385,551.385,734.769,551.385,734.769,551.385C756.431,551.385,774.154,533.662,774.154,512C774.154,490.338,756.431,472.615,734.769,472.615C734.769,472.615,734.769,472.615,734.769,472.615" class="icon-mas-solid"/><glyph unicode="&#x0043;" d="M960.249,575.751C960.249,575.751,575.751,575.751,575.751,575.751C575.751,575.751,575.751,960.249,575.751,960.249C575.751,995.312,547.063,1024,512,1024C476.937,1024,448.249,995.312,448.249,960.249C448.249,960.249,448.249,575.751,448.249,575.751C448.249,575.751,63.751,575.751,63.751,575.751C28.688,575.751,0,547.063,0,512C0,494.468,7.172,478.531,18.727,466.976C30.282,455.421,46.219,448.249,63.751,448.249C63.751,448.249,448.249,448.249,448.249,448.249C448.249,448.249,448.249,63.751,448.249,63.751C448.249,46.219,455.421,30.282,466.976,18.727C478.531,7.172,494.468,0,512,0C547.063,0,575.751,28.688,575.751,63.751C575.751,63.751,575.751,448.249,575.751,448.249C575.751,448.249,960.249,448.249,960.249,448.249C995.312,448.249,1024,476.937,1024,512C1024,547.063,995.312,575.751,960.249,575.751C960.249,575.751,960.249,575.751,960.249,575.751" class="icon-mas"/><glyph unicode="&#x0044;" d="M512,1024C229.169,1024,0,794.831,0,512C0,229.169,229.169,0,512,0C794.831,0,1024,229.169,1024,512C1024,794.831,794.831,1024,512,1024C512,1024,512,1024,512,1024M554.338,754.215C554.338,754.215,546.708,470.892,546.708,470.892C546.215,450.708,532.185,434.462,512,434.462C491.815,434.462,477.785,450.708,477.292,470.892C477.292,470.892,469.662,754.215,469.662,754.215C469.169,777.846,488.123,797.538,512,797.538C535.631,797.538,554.831,778.092,554.338,754.215C554.338,754.215,554.338,754.215,554.338,754.215M512,270.769C485.662,270.769,464.985,290.708,464.985,316.062C464.985,341.415,485.662,361.354,512,361.354C538.338,361.354,559.015,341.415,559.015,316.062C559.015,290.708,538.338,270.769,512,270.769C512,270.769,512,270.769,512,270.769" class="icon-alert"/><glyph unicode="&#x0045;" d="M988.809,827.951C988.809,827.951,590.513,1009.504,590.513,1009.504C547.324,1029.233,476.676,1029.233,433.487,1009.504C433.487,1009.504,35.457,827.951,35.457,827.951C-11.464,806.623,-11.464,771.699,35.457,750.371C35.457,750.371,430.021,570.418,430.021,570.418C475.076,549.89,549.19,549.89,594.245,570.418C594.245,570.418,988.809,750.371,988.809,750.371C1035.73,771.699,1035.73,806.623,988.809,827.951C988.809,827.951,988.809,827.951,988.809,827.951M430.021,194.516C430.021,194.516,163.957,315.818,163.957,315.818C152.76,320.883,139.697,320.883,128.5,315.818C128.5,315.818,35.457,273.429,35.457,273.429C-11.464,252.101,-11.464,217.177,35.457,195.849C35.457,195.849,430.021,15.896,430.021,15.896C475.076,-4.632,549.19,-4.632,594.245,15.896C594.245,15.896,988.809,195.849,988.809,195.849C1035.73,217.177,1035.73,252.101,988.809,273.429C988.809,273.429,895.767,315.818,895.767,315.818C884.57,320.883,871.506,320.883,860.309,315.818C860.309,315.818,594.245,194.516,594.245,194.516C549.19,173.988,475.076,173.988,430.021,194.516C430.021,194.516,430.021,194.516,430.021,194.516M988.809,550.69C988.809,550.69,904.298,589.08,904.298,589.08C893.101,594.145,880.304,594.145,869.107,589.08C869.107,589.08,581.182,458.714,581.182,458.714C540.393,444.851,483.607,444.851,442.818,458.714C442.818,458.714,154.893,589.08,154.893,589.08C143.696,594.145,130.899,594.145,119.702,589.08C119.702,589.08,35.191,550.69,35.191,550.69C-11.73,529.362,-11.73,494.438,35.191,473.11C35.191,473.11,429.755,293.157,429.755,293.157C474.81,272.629,548.924,272.629,593.979,293.157C593.979,293.157,988.543,473.11,988.543,473.11C1035.73,494.438,1035.73,529.362,988.809,550.69C988.809,550.69,988.809,550.69,988.809,550.69" class="icon-apps"/><glyph unicode="&#x0046;" d="M395.978,512.633C395.978,512.633,783.431,899.782,783.431,899.782C812.086,928.437,812.086,974.773,783.431,1003.123C754.776,1031.778,708.44,1031.473,679.785,1003.123C679.785,1003.123,240.814,564.456,240.814,564.456C213.073,536.716,212.464,492.209,238.68,463.554C238.68,463.554,679.48,21.839,679.48,21.839C693.808,7.511,712.708,0.5,731.303,0.5C749.899,0.5,768.799,7.511,783.126,21.839C811.782,50.494,811.782,96.83,783.126,125.18C783.126,125.18,395.978,512.633,395.978,512.633C395.978,512.633,395.978,512.633,395.978,512.633" class="icon-arrow-back"/><glyph unicode="&#x0047;" d="M512.691,395.998C512.691,395.998,899.882,783.494,899.882,783.494C928.54,812.153,974.882,812.153,1003.235,783.494C1031.588,754.836,1031.588,708.495,1003.235,679.837C1003.235,679.837,564.519,240.816,564.519,240.816C536.776,213.073,492.264,212.463,463.606,238.682C463.606,238.682,21.841,679.532,21.841,679.532C7.512,693.861,0.5,712.763,0.5,731.361C0.5,749.958,7.512,768.86,21.841,783.189C50.5,811.848,96.841,811.848,125.194,783.189C125.194,783.189,512.691,395.998,512.691,395.998C512.691,395.998,512.691,395.998,512.691,395.998" class="icon-arrow-down"/><glyph unicode="&#x0048;" d="M0,512C0,229.169,229.169,0,512,0C794.831,0,1024,229.169,1024,512C1024,794.831,794.831,1024,512,1024C229.169,1024,0,794.831,0,512C0,512,0,512,0,512M711.631,618.831C730.092,637.292,760.369,637.292,778.831,618.831C788.185,609.477,792.615,597.415,792.615,585.354C792.615,573.292,787.938,560.985,778.585,551.631C778.585,551.631,546.462,320.246,546.462,320.246C527.754,303.262,498.954,303.754,480.985,321.723C480.985,321.723,245.415,556.554,245.415,556.554C226.954,575.015,226.708,605.046,245.415,623.754C263.877,642.215,293.908,642.462,312.615,623.754C312.615,623.754,512.246,422.154,512.246,422.154C512.246,422.154,711.631,618.831,711.631,618.831C711.631,618.831,711.631,618.831,711.631,618.831" class="icon-arrow-dropdown-circle"/><glyph unicode="&#x0049;" d="M245.169,623.508C226.708,605.046,226.708,574.769,245.169,556.308C245.169,556.308,480.738,321.477,480.738,321.477C498.708,303.508,527.754,303.015,546.215,320C546.215,320,778.338,551.385,778.338,551.385C787.692,560.738,792.369,572.8,792.369,585.108C792.369,597.169,787.692,609.477,778.585,618.585C760.123,637.046,730.092,637.292,711.385,618.585C711.385,618.585,512,422.154,512,422.154C512,422.154,312.369,623.754,312.369,623.754C293.908,642.215,263.877,642.215,245.169,623.508C245.169,623.508,245.169,623.508,245.169,623.508M0,512C0,229.169,229.169,0,512,0C794.831,0,1024,229.169,1024,512C1024,794.831,794.831,1024,512,1024C229.169,1024,0,794.831,0,512C0,512,0,512,0,512M818.215,818.215C900.185,736.492,945.231,627.692,945.231,512C945.231,396.308,900.185,287.508,818.215,205.785C736.492,123.815,627.692,78.769,512,78.769C396.308,78.769,287.508,123.815,205.785,205.785C123.815,287.508,78.769,396.308,78.769,512C78.769,627.692,123.815,736.492,205.785,818.215C287.508,900.185,396.308,945.231,512,945.231C627.692,945.231,736.492,900.185,818.215,818.215C818.215,818.215,818.215,818.215,818.215,818.215" class="icon-arrow-dropdown"/><glyph unicode="&#x004a;" d="M512,1024C229.169,1024,0,794.831,0,512C0,229.169,229.169,0,512,0C794.831,0,1024,229.169,1024,512C1024,794.831,794.831,1024,512,1024C512,1024,512,1024,512,1024M618.831,312.369C637.292,293.908,637.292,263.631,618.831,245.169C609.477,235.815,597.415,231.385,585.354,231.385C573.292,231.385,560.985,236.062,551.631,245.415C551.631,245.415,320.246,477.538,320.246,477.538C303.262,496.246,303.754,525.046,321.723,543.015C321.723,543.015,556.554,778.585,556.554,778.585C575.015,797.046,605.046,797.292,623.754,778.585C642.215,760.123,642.462,730.092,623.754,711.385C623.754,711.385,422.154,512,422.154,512C422.154,512,618.831,312.369,618.831,312.369C618.831,312.369,618.831,312.369,618.831,312.369" class="icon-arrow-dropleft-circle"/><glyph unicode="&#x004b;" d="M623.508,778.831C605.046,797.292,574.769,797.292,556.308,778.831C556.308,778.831,321.477,543.262,321.477,543.262C303.508,525.292,303.015,496.246,320,477.785C320,477.785,551.385,245.662,551.385,245.662C560.738,236.308,572.8,231.631,585.108,231.631C597.169,231.631,609.477,236.308,618.585,245.415C637.046,263.877,637.292,293.908,618.585,312.615C618.585,312.615,422.154,512,422.154,512C422.154,512,623.754,711.631,623.754,711.631C642.215,730.092,642.215,760.123,623.508,778.831C623.508,778.831,623.508,778.831,623.508,778.831M512,1024C229.169,1024,0,794.831,0,512C0,229.169,229.169,0,512,0C794.831,0,1024,229.169,1024,512C1024,794.831,794.831,1024,512,1024C512,1024,512,1024,512,1024M818.215,205.785C736.492,123.815,627.692,78.769,512,78.769C396.308,78.769,287.508,123.815,205.785,205.785C123.815,287.508,78.769,396.308,78.769,512C78.769,627.692,123.815,736.492,205.785,818.215C287.508,900.185,396.308,945.231,512,945.231C627.692,945.231,736.492,900.185,818.215,818.215C900.185,736.492,945.231,627.692,945.231,512C945.231,396.308,900.185,287.508,818.215,205.785C818.215,205.785,818.215,205.785,818.215,205.785" class="icon-arrow-dropleft"/><glyph unicode="&#x004c;" d="M0,512C0,229.169,229.169,0,512,0C794.831,0,1024,229.169,1024,512C1024,794.831,794.831,1024,512,1024C229.169,1024,0,794.831,0,512C0,512,0,512,0,512M601.846,512C601.846,512,400.246,711.631,400.246,711.631C381.785,730.092,381.785,760.369,400.246,778.831C418.708,797.292,448.985,797.292,467.446,778.831C467.446,778.831,702.277,543.262,702.277,543.262C720.246,525.292,720.738,496.246,703.754,477.785C703.754,477.785,472.369,245.662,472.369,245.662C463.015,236.308,450.954,231.631,438.646,231.631C426.585,231.631,414.277,236.308,405.169,245.415C386.708,263.877,386.462,293.908,405.169,312.615C405.169,312.615,601.846,512,601.846,512C601.846,512,601.846,512,601.846,512" class="icon-arrow-dropright-circle"/><glyph unicode="&#x004d;" d="M400.492,778.831C418.954,797.292,449.231,797.292,467.692,778.831C467.692,778.831,702.523,543.262,702.523,543.262C720.492,525.292,720.985,496.246,704,477.785C704,477.785,472.615,245.662,472.615,245.662C463.262,236.308,451.2,231.631,438.892,231.631C426.831,231.631,414.523,236.308,405.415,245.415C386.954,263.877,386.708,293.908,405.415,312.615C405.415,312.615,602.092,512.246,602.092,512.246C602.092,512.246,400.492,711.877,400.492,711.877C381.785,730.092,381.785,760.123,400.492,778.831C400.492,778.831,400.492,778.831,400.492,778.831M0,512C0,229.169,229.169,0,512,0C794.831,0,1024,229.169,1024,512C1024,794.831,794.831,1024,512,1024C229.169,1024,0,794.831,0,512C0,512,0,512,0,512M78.769,512C78.769,627.692,123.815,736.492,205.785,818.215C287.508,900.185,396.308,945.231,512,945.231C627.692,945.231,736.492,900.185,818.215,818.215C900.185,736.492,945.231,627.692,945.231,512C945.231,396.308,900.185,287.508,818.215,205.785C736.492,123.815,627.692,78.769,512,78.769C396.308,78.769,287.508,123.815,205.785,205.785C123.815,287.508,78.769,396.308,78.769,512C78.769,512,78.769,512,78.769,512" class="icon-arrow-dropright"/><glyph unicode="&#x004e;" d="M512,0C794.831,0,1024,229.169,1024,512C1024,794.831,794.831,1024,512,1024C229.169,1024,0,794.831,0,512C0,229.169,229.169,0,512,0C512,0,512,0,512,0M512,601.846C512,601.846,312.369,400.246,312.369,400.246C293.908,381.785,263.631,381.785,245.169,400.246C226.708,418.708,226.708,448.985,245.169,467.446C245.169,467.446,480.738,702.277,480.738,702.277C498.708,720.246,527.754,720.738,546.215,703.754C546.215,703.754,778.338,472.369,778.338,472.369C787.692,463.015,792.369,450.954,792.369,438.646C792.369,426.585,787.692,414.277,778.585,405.169C760.123,386.708,730.092,386.462,711.385,405.169C711.385,405.169,512,601.846,512,601.846C512,601.846,512,601.846,512,601.846" class="icon-arrow-dropup-circle"/><glyph unicode="&#x004f;" d="M245.169,400.492C226.708,418.954,226.708,449.231,245.169,467.692C245.169,467.692,480.738,702.523,480.738,702.523C498.708,720.492,527.754,720.985,546.215,704C546.215,704,778.338,472.615,778.338,472.615C787.692,463.262,792.369,451.2,792.369,438.892C792.369,426.831,787.692,414.523,778.585,405.415C760.123,386.954,730.092,386.708,711.385,405.415C711.385,405.415,512,601.846,512,601.846C512,601.846,312.369,400.246,312.369,400.246C293.908,381.785,263.877,381.785,245.169,400.492C245.169,400.492,245.169,400.492,245.169,400.492M512,0C794.831,0,1024,229.169,1024,512C1024,794.831,794.831,1024,512,1024C229.169,1024,0,794.831,0,512C0,229.169,229.169,0,512,0C512,0,512,0,512,0M512,78.769C396.308,78.769,287.508,123.815,205.785,205.785C123.815,287.508,78.769,396.308,78.769,512C78.769,627.692,123.815,736.492,205.785,818.215C287.508,900.185,396.308,945.231,512,945.231C627.692,945.231,736.492,900.185,818.215,818.215C900.185,736.492,945.231,627.692,945.231,512C945.231,396.308,900.185,287.508,818.215,205.785C736.492,123.815,627.692,78.769,512,78.769C512,78.769,512,78.769,512,78.769" class="icon-arrow-dropup"/><glyph unicode="&#x0050;" d="M628.49,512.691C628.49,512.691,240.994,899.882,240.994,899.882C212.335,928.54,212.335,974.882,240.994,1003.235C269.652,1031.588,315.993,1031.588,344.651,1003.235C344.651,1003.235,783.672,564.519,783.672,564.519C811.415,536.776,812.025,492.264,785.806,463.606C785.806,463.606,344.956,21.841,344.956,21.841C330.627,7.512,311.725,0.5,293.127,0.5C274.53,0.5,255.628,7.512,241.299,21.841C212.64,50.5,212.64,96.841,241.299,125.194C241.299,125.194,628.49,512.691,628.49,512.691C628.49,512.691,628.49,512.691,628.49,512.691" class="icon-arrow-forward"/><glyph unicode="&#x0051;" d="M370.973,840.877C389.113,823.093,389.113,793.572,371.329,775.432C371.329,775.432,155.432,558.824,155.432,558.824C155.432,558.824,978.117,558.824,978.117,558.824C1003.371,558.824,1024,538.194,1024,512.586C1024,486.977,1003.371,466.347,978.117,466.347C978.117,466.347,155.432,466.347,155.432,466.347C155.432,466.347,371.685,249.739,371.685,249.739C389.469,231.599,389.113,202.433,371.329,184.294C353.189,166.51,324.379,166.51,306.24,184.65C306.24,184.65,13.16,479.863,13.16,479.863C9.248,484.131,6.047,488.755,3.557,494.446C1.067,500.137,0,506.183,0,512.23C0,524.323,4.624,535.705,13.16,544.597C13.16,544.597,306.24,839.81,306.24,839.81C323.668,858.306,352.834,858.661,370.973,840.877C370.973,840.877,370.973,840.877,370.973,840.877" class="icon-arrow-round-back"/><glyph unicode="&#x0052;" d="M840.877,370.973C823.093,389.113,793.572,389.113,775.432,371.329C775.432,371.329,558.824,155.432,558.824,155.432C558.824,155.432,558.824,978.117,558.824,978.117C558.824,1003.371,538.194,1024,512.586,1024C486.977,1024,466.347,1003.371,466.347,978.117C466.347,978.117,466.347,155.432,466.347,155.432C466.347,155.432,249.739,371.685,249.739,371.685C231.599,389.469,202.433,389.113,184.294,371.329C166.51,353.189,166.51,324.379,184.65,306.24C184.65,306.24,479.863,13.16,479.863,13.16C484.131,9.248,488.755,6.047,494.446,3.557C500.137,1.067,506.183,0,512.23,0C524.323,0,535.705,4.624,544.597,13.16C544.597,13.16,839.81,306.24,839.81,306.24C858.306,323.668,858.661,352.834,840.877,370.973C840.877,370.973,840.877,370.973,840.877,370.973" class="icon-arrow-round-down"/><glyph unicode="&#x0053;" d="M653.027,840.877C634.887,823.093,634.887,793.572,652.671,775.432C652.671,775.432,868.924,558.824,868.924,558.824C868.924,558.824,45.883,558.824,45.883,558.824C20.629,558.824,0,538.194,0,512.586C0,486.977,20.629,466.347,45.883,466.347C45.883,466.347,868.568,466.347,868.568,466.347C868.568,466.347,652.315,249.739,652.315,249.739C634.531,231.599,634.887,202.433,652.671,184.294C670.811,166.51,699.621,166.51,717.76,184.65C717.76,184.65,1010.84,479.863,1010.84,479.863C1014.752,484.131,1017.953,488.755,1020.443,494.446C1022.933,500.137,1024,506.183,1024,512.23C1024,524.323,1019.376,535.705,1010.84,544.597C1010.84,544.597,717.76,839.81,717.76,839.81C700.332,858.306,671.166,858.661,653.027,840.877C653.027,840.877,653.027,840.877,653.027,840.877" class="icon-arrow-round-forward"/><glyph unicode="&#x0054;" d="M840.877,653.027C823.093,634.887,793.572,634.887,775.432,652.671C775.432,652.671,558.824,868.568,558.824,868.568C558.824,868.568,558.824,45.883,558.824,45.883C558.824,20.629,538.194,0,512.586,0C486.977,0,466.347,20.629,466.347,45.883C466.347,45.883,466.347,868.568,466.347,868.568C466.347,868.568,249.739,652.315,249.739,652.315C231.599,634.531,202.433,634.887,184.294,652.671C166.51,670.811,166.51,699.621,184.65,717.76C184.65,717.76,479.863,1010.84,479.863,1010.84C484.131,1014.752,488.755,1017.953,494.446,1020.443C500.137,1022.933,506.183,1024,512.23,1024C524.323,1024,535.705,1019.376,544.597,1010.84C544.597,1010.84,839.81,717.76,839.81,717.76C858.306,700.332,858.661,671.166,840.877,653.027C840.877,653.027,840.877,653.027,840.877,653.027" class="icon-arrow-round-up"/><glyph unicode="&#x0055;" d="M512.133,628.445C512.133,628.445,899.282,240.991,899.282,240.991C927.937,212.336,974.273,212.336,1002.623,240.991C1031.278,269.646,1030.973,315.982,1002.623,344.637C1002.623,344.637,563.956,783.609,563.956,783.609C536.216,811.349,491.709,811.959,463.054,785.743C463.054,785.743,21.339,344.942,21.339,344.942C7.011,330.615,0,311.714,0,293.119C0,274.524,7.011,255.624,21.339,241.296C49.994,212.641,96.33,212.641,124.68,241.296C124.68,241.296,512.133,628.445,512.133,628.445C512.133,628.445,512.133,628.445,512.133,628.445" class="icon-arrow-up"/><glyph unicode="&#x0056;" d="M740.962,728.98C721.309,728.98,705.312,712.984,705.312,693.331C705.312,693.331,705.312,249.087,705.312,249.087C705.312,202.698,687.031,156.765,655.038,123.173C623.273,89.809,574.599,69.013,528.209,69.013C528.209,69.013,497.13,69.013,497.13,69.013C452.34,69.013,406.865,89.351,371.901,125.229C337.166,160.65,317.285,206.582,317.285,251.372C317.285,251.372,317.285,824.502,317.285,824.502C317.285,858.551,331.453,890.544,356.819,914.767C382.184,938.762,415.548,952.016,450.512,952.016C485.019,952.016,517.469,938.762,541.463,914.996C565.458,891.001,578.941,858.78,578.941,824.502C578.941,824.502,578.941,289.307,578.941,289.307C578.941,250.23,547.862,215.723,512.67,215.723C481.591,215.723,448.227,245.202,448.227,289.307C448.227,289.307,448.227,594.61,448.227,594.61C448.227,614.263,432.23,630.259,412.578,630.259C392.925,630.259,376.928,614.263,376.928,594.61C376.928,594.61,376.928,289.307,376.928,289.307C376.928,208.182,435.201,146.939,512.67,146.939C550.375,146.939,585.111,160.878,610.248,186.473C636.071,212.524,650.239,249.087,650.239,289.307C650.239,289.307,650.239,824.502,650.239,824.502C650.239,877.975,629.444,928.25,591.509,965.727C553.803,1003.433,503.529,1024,449.826,1024C396.124,1024,345.85,1003.433,307.687,965.727C269.524,928.021,248.5,877.975,248.5,824.273C248.5,824.273,248.5,251.144,248.5,251.144C248.5,185.559,276.379,118.831,322.998,72.898C370.758,25.823,432.459,0,496.902,0C496.902,0,527.98,0,527.98,0C591.052,0,654.352,26.737,701.427,73.355C724.737,96.436,743.018,122.944,756.044,152.423C769.527,183.273,776.382,215.723,776.382,248.63C776.382,248.63,776.382,693.331,776.382,693.331C776.611,712.984,760.614,728.98,740.962,728.98C740.962,728.98,740.962,728.98,740.962,728.98" class="icon-attach"/><glyph unicode="&#x0057;" d="M197,945.734C197,945.734,197,10.389,197,10.389C197,2.266,206.353,-2.41,212.753,2.513C212.753,2.513,500.249,228.964,500.249,228.964C507.387,234.134,516.986,234.134,523.878,228.964C523.878,228.964,811.374,2.513,811.374,2.513C817.774,-2.41,827.127,2.266,827.127,10.389C827.127,10.389,827.127,945.734,827.127,945.734C827.127,989.301,791.929,1024.5,748.361,1024.5C748.361,1024.5,275.766,1024.5,275.766,1024.5C232.199,1024.5,197,989.301,197,945.734C197,945.734,197,945.734,197,945.734" class="icon-bookmark"/><glyph unicode="&#x0058;" d="M925.538,905.962C925.538,905.962,827.077,905.962,827.077,905.962C827.077,905.962,827.077,846.885,827.077,846.885C827.077,836.054,818.215,827.192,807.385,827.192C807.385,827.192,768,827.192,768,827.192C757.169,827.192,748.308,836.054,748.308,846.885C748.308,846.885,748.308,905.962,748.308,905.962C748.308,905.962,275.692,905.962,275.692,905.962C275.692,905.962,275.692,846.885,275.692,846.885C275.692,836.054,266.831,827.192,256,827.192C256,827.192,216.615,827.192,216.615,827.192C205.785,827.192,196.923,836.054,196.923,846.885C196.923,846.885,196.923,905.962,196.923,905.962C196.923,905.962,98.462,905.962,98.462,905.962C44.308,905.962,0,861.654,0,807.5C0,807.5,0,137.962,0,137.962C0,83.808,44.308,39.5,98.462,39.5C98.462,39.5,925.538,39.5,925.538,39.5C979.692,39.5,1024,83.808,1024,137.962C1024,137.962,1024,807.5,1024,807.5C1024,861.654,979.692,905.962,925.538,905.962C925.538,905.962,925.538,905.962,925.538,905.962M945.231,167.5C945.231,140.423,923.077,118.269,896,118.269C896,118.269,128,118.269,128,118.269C100.923,118.269,78.769,140.423,78.769,167.5C78.769,167.5,78.769,610.577,78.769,610.577C78.769,621.408,87.631,630.269,98.462,630.269C98.462,630.269,925.538,630.269,925.538,630.269C936.369,630.269,945.231,621.408,945.231,610.577C945.231,610.577,945.231,167.5,945.231,167.5C945.231,167.5,945.231,167.5,945.231,167.5M275.692,965.038C275.692,975.869,266.831,984.731,256,984.731C256,984.731,216.615,984.731,216.615,984.731C205.785,984.731,196.923,975.869,196.923,965.038C196.923,965.038,196.923,905.962,196.923,905.962C196.923,905.962,275.692,905.962,275.692,905.962C275.692,905.962,275.692,965.038,275.692,965.038C275.692,965.038,275.692,965.038,275.692,965.038M827.077,965.038C827.077,975.869,818.215,984.731,807.385,984.731C807.385,984.731,768,984.731,768,984.731C757.169,984.731,748.308,975.869,748.308,965.038C748.308,965.038,748.308,905.962,748.308,905.962C748.308,905.962,827.077,905.962,827.077,905.962C827.077,905.962,827.077,965.038,827.077,965.038C827.077,965.038,827.077,965.038,827.077,965.038" class="icon-calendar"/><glyph unicode="&#x0059;" d="M994.924,222.668C955.738,261.854,861.638,320.766,815.255,342.891C761.407,368.748,741.681,368.215,703.562,340.759C671.84,317.833,651.314,296.508,614.793,304.505C578.273,312.235,506.299,366.882,436.458,436.458C366.616,506.299,312.235,578.273,304.505,614.793C296.774,651.58,318.1,671.84,340.759,703.562C368.215,741.681,369.015,761.407,342.891,815.255C320.766,861.905,262.12,955.738,222.668,994.924C183.482,1034.11,174.685,1025.579,153.093,1017.849C153.093,1017.849,121.104,1005.053,89.382,983.994C50.196,957.87,28.337,936.011,12.876,903.223C-2.318,870.435,-19.912,809.39,69.656,649.981C141.897,521.227,212.804,423.662,318.1,318.633C318.1,318.633,318.367,318.367,318.367,318.367C318.367,318.367,318.633,318.1,318.633,318.1C423.929,212.804,521.227,141.897,649.981,69.656C809.39,-19.912,870.435,-2.318,903.223,12.876C936.011,28.071,957.87,49.93,983.994,89.382C1005.053,121.104,1017.849,153.093,1017.849,153.093C1025.579,174.685,1034.376,183.482,994.924,222.668C994.924,222.668,994.924,222.668,994.924,222.668" class="icon-call"/><glyph unicode="&#x005a;" d="M930.786,723.185C930.786,723.185,385.267,723.185,385.267,723.185C333.571,723.185,291.476,681.089,291.476,629.393C291.476,629.393,291.476,249.549,291.476,249.549C291.476,197.853,333.571,156.004,385.267,156.004C385.267,156.004,697.414,156.004,697.414,156.004C704.307,156.004,711.2,153.05,716.123,148.126C716.123,148.126,871.212,5.1,871.212,5.1C879.828,-3.27,894.106,0.177,894.106,12.239C894.106,12.239,894.106,136.802,894.106,136.802C894.106,151.573,903.46,156.25,918.231,156.25C918.231,156.25,920.693,156.25,920.693,156.25C972.389,156.25,1024.331,197.853,1024.331,249.795C1024.331,249.795,1024.331,629.393,1024.331,629.393C1024.577,681.336,982.482,723.185,930.786,723.185C930.786,723.185,930.786,723.185,930.786,723.185M311.662,783.497C311.662,783.497,748.372,783.497,748.372,783.497C748.372,783.497,748.372,944.248,748.372,944.248C748.372,988.559,712.431,1024.5,668.12,1024.5C668.12,1024.5,80.752,1024.5,80.752,1024.5C36.441,1024.5,0.5,988.559,0.5,944.248C0.5,944.248,0.5,537.571,0.5,537.571C0.5,493.26,36.441,457.319,80.752,457.319C80.752,457.319,231.164,457.319,231.164,457.319C231.164,457.319,231.164,703.245,231.164,703.245C231.41,747.556,267.351,783.497,311.662,783.497C311.662,783.497,311.662,783.497,311.662,783.497" class="icon-chatboxes"/><glyph unicode="&#x0061;" d="M939.167,1024C939.167,1024,85.833,1024,85.833,1024C38.633,1024,0.5,985.867,0.5,938.667C0.5,938.667,0.5,85.333,0.5,85.333C0.5,38.133,38.633,0,85.833,0C85.833,0,939.167,0,939.167,0C986.367,0,1024.5,38.133,1024.5,85.333C1024.5,85.333,1024.5,938.667,1024.5,938.667C1024.5,985.867,986.367,1024,939.167,1024C939.167,1024,939.167,1024,939.167,1024M949.833,96C949.833,84.267,940.233,74.667,928.5,74.667C928.5,74.667,96.5,74.667,96.5,74.667C84.767,74.667,75.167,84.267,75.167,96C75.167,96,75.167,928,75.167,928C75.167,939.733,84.767,949.333,96.5,949.333C96.5,949.333,928.5,949.333,928.5,949.333C940.233,949.333,949.833,939.733,949.833,928C949.833,928,949.833,96,949.833,96C949.833,96,949.833,96,949.833,96M799.433,680.267C799.433,680.267,752.5,728.533,752.5,728.533C750.633,730.667,747.7,731.733,745.033,731.733C742.1,731.733,739.433,730.667,737.567,728.533C737.567,728.533,412.233,400.8,412.233,400.8C412.233,400.8,293.833,519.2,293.833,519.2C291.7,521.333,289.033,522.4,286.367,522.4C283.7,522.4,281.033,521.333,278.9,519.2C278.9,519.2,231.433,471.733,231.433,471.733C227.167,467.467,227.167,460.8,231.433,456.533C231.433,456.533,380.767,307.2,380.767,307.2C390.367,297.6,402.1,292,411.967,292C426.1,292,438.367,302.4,442.9,306.667C442.9,306.667,443.167,306.667,443.167,306.667C443.167,306.667,799.7,665.067,799.7,665.067C803.433,669.6,803.433,676.267,799.433,680.267C799.433,680.267,799.433,680.267,799.433,680.267" class="icon-checkbox-outline"/><glyph unicode="&#x0062;" d="M939.167,1024C939.167,1024,85.833,1024,85.833,1024C38.633,1024,0.5,985.867,0.5,938.667C0.5,938.667,0.5,85.333,0.5,85.333C0.5,38.133,38.633,0,85.833,0C85.833,0,939.167,0,939.167,0C986.367,0,1024.5,38.133,1024.5,85.333C1024.5,85.333,1024.5,938.667,1024.5,938.667C1024.5,985.867,986.367,1024,939.167,1024C939.167,1024,939.167,1024,939.167,1024M799.167,665.333C799.167,665.333,442.633,307.2,442.633,307.2C442.633,307.2,442.367,307.2,442.367,307.2C437.833,302.667,425.567,292.533,411.433,292.533C401.3,292.533,389.833,298.133,380.233,307.733C380.233,307.733,230.9,457.067,230.9,457.067C226.633,461.333,226.633,468,230.9,472.267C230.9,472.267,278.367,519.733,278.367,519.733C280.5,521.867,283.167,522.933,285.833,522.933C288.5,522.933,291.167,521.867,293.3,519.733C293.3,519.733,411.7,401.333,411.7,401.333C411.7,401.333,737.033,729.067,737.033,729.067C739.167,731.2,741.833,732.267,744.5,732.267C747.433,732.267,750.1,731.2,751.967,729.067C751.967,729.067,798.633,680.8,798.633,680.8C803.433,676.267,803.433,669.6,799.167,665.333C799.167,665.333,799.167,665.333,799.167,665.333" class="icon-checkbox"/><glyph unicode="&#x0063;" d="M774.4,667.323C774.4,667.323,731.077,711.877,731.077,711.877C729.354,713.846,726.646,714.831,724.185,714.831C721.477,714.831,719.015,713.846,717.292,711.877C717.292,711.877,416.985,409.354,416.985,409.354C416.985,409.354,307.692,518.646,307.692,518.646C305.723,520.615,303.262,521.6,300.8,521.6C298.338,521.6,295.877,520.615,293.908,518.646C293.908,518.646,250.092,474.831,250.092,474.831C246.154,470.892,246.154,464.738,250.092,460.8C250.092,460.8,387.938,322.954,387.938,322.954C396.8,314.092,407.631,308.923,416.738,308.923C429.785,308.923,441.108,318.523,445.292,322.462C445.292,322.462,445.538,322.462,445.538,322.462C445.538,322.462,774.646,653.292,774.646,653.292C778.092,657.477,778.092,663.631,774.4,667.323C774.4,667.323,774.4,667.323,774.4,667.323M512,955.077C630.4,955.077,741.662,909.046,825.354,825.354C909.046,741.662,955.077,630.4,955.077,512C955.077,393.6,909.046,282.338,825.354,198.646C741.662,114.954,630.4,68.923,512,68.923C393.6,68.923,282.338,114.954,198.646,198.646C114.954,282.338,68.923,393.6,68.923,512C68.923,630.4,114.954,741.662,198.646,825.354C282.338,909.046,393.6,955.077,512,955.077M512,1024C229.169,1024,0,794.831,0,512C0,229.169,229.169,0,512,0C794.831,0,1024,229.169,1024,512C1024,794.831,794.831,1024,512,1024C512,1024,512,1024,512,1024" class="icon-checkmark-circle-outline"/><glyph unicode="&#x0064;" d="M512,1024C229.169,1024,0,794.831,0,512C0,229.169,229.169,0,512,0C794.831,0,1024,229.169,1024,512C1024,794.831,794.831,1024,512,1024C512,1024,512,1024,512,1024M774.154,653.538C774.154,653.538,445.046,322.954,445.046,322.954C445.046,322.954,444.8,322.954,444.8,322.954C440.615,318.769,429.292,309.415,416.246,309.415C406.892,309.415,396.308,314.585,387.446,323.446C387.446,323.446,249.6,461.292,249.6,461.292C245.662,465.231,245.662,471.385,249.6,475.323C249.6,475.323,293.415,519.138,293.415,519.138C295.385,521.108,297.846,522.092,300.308,522.092C302.769,522.092,305.231,521.108,307.2,519.138C307.2,519.138,416.492,409.846,416.492,409.846C416.492,409.846,716.8,712.369,716.8,712.369C718.769,714.338,721.231,715.323,723.692,715.323C726.4,715.323,728.862,714.338,730.585,712.369C730.585,712.369,773.662,667.815,773.662,667.815C778.092,663.631,778.092,657.477,774.154,653.538C774.154,653.538,774.154,653.538,774.154,653.538" class="icon-checkmark-circle"/><glyph unicode="&#x0065;" d="M1019.089,812.374C1019.089,812.374,935.396,898.446,935.396,898.446C932.067,902.25,926.836,904.152,922.081,904.152C916.85,904.152,912.095,902.25,908.766,898.446C908.766,898.446,328.617,314.017,328.617,314.017C328.617,314.017,117.481,525.153,117.481,525.153C113.677,528.957,108.921,530.86,104.166,530.86C99.411,530.86,94.655,528.957,90.851,525.153C90.851,525.153,6.206,440.508,6.206,440.508C-1.402,432.9,-1.402,421.012,6.206,413.403C6.206,413.403,272.504,147.105,272.504,147.105C289.623,129.986,310.547,120,328.141,120C353.345,120,375.219,138.546,383.303,146.154C383.303,146.154,383.779,146.154,383.779,146.154C383.779,146.154,1019.565,785.269,1019.565,785.269C1026.222,793.353,1026.222,805.241,1019.089,812.374C1019.089,812.374,1019.089,812.374,1019.089,812.374" class="icon-checkmark"/><glyph unicode="&#x0066;" d="M63.5,511.801C63.5,590.053,63.5,667.188,63.5,745.44C63.5,763.326,70.207,774.505,85.858,784.566C221.122,861.7,356.387,939.953,491.652,1018.205C506.184,1027.148,518.481,1026.03,533.014,1018.205C668.278,939.953,803.543,861.7,938.808,784.566C954.458,775.623,961.165,763.326,961.165,745.44C961.165,590.053,961.165,434.667,961.165,279.28C961.165,261.394,954.458,250.215,939.925,241.272C803.543,164.137,668.278,85.885,534.132,7.633C518.481,-1.31,506.184,-2.428,490.534,7.633C355.269,85.885,220.005,164.137,84.74,242.39C69.089,251.333,63.5,262.512,63.5,280.398C63.5,357.532,63.5,434.667,63.5,511.801C63.5,511.801,63.5,511.801,63.5,511.801M538.603,75.824C543.075,78.06,546.428,79.178,548.664,80.296C663.807,147.369,780.067,214.442,895.21,280.398C903.035,284.869,904.153,290.459,904.153,297.166C904.153,430.195,904.153,563.224,904.153,695.135C904.153,698.488,904.153,701.842,903.035,706.314C900.799,705.196,898.564,705.196,897.446,704.078C780.067,637.005,662.689,568.813,545.31,501.74C537.485,497.268,537.485,491.679,537.485,484.972C537.485,421.252,537.485,357.532,537.485,293.812C538.603,222.268,538.603,149.605,538.603,75.824C538.603,75.824,538.603,75.824,538.603,75.824M319.497,591.171C319.497,586.7,318.379,585.582,318.379,583.346C318.379,448.081,318.379,313.934,318.379,178.67C318.379,174.198,322.85,167.491,327.322,165.255C375.391,137.308,423.46,109.361,471.53,81.413C474.883,79.178,478.237,78.06,482.709,75.824C482.709,79.178,483.826,80.296,483.826,82.531C483.826,217.796,483.826,351.943,483.826,487.207C483.826,495.033,480.473,498.386,473.765,502.858C429.05,528.569,383.216,554.281,338.501,581.11C332.911,584.464,327.322,587.817,319.497,591.171C319.497,591.171,319.497,591.171,319.497,591.171M348.562,639.24C354.151,635.887,357.505,633.651,360.859,631.415C407.81,604.586,453.643,577.756,500.595,550.927C508.42,546.455,514.01,546.455,521.835,550.927C635.859,616.883,749.884,682.838,863.909,747.676C867.263,749.911,870.616,752.147,876.206,755.501C871.734,758.855,868.381,761.09,865.027,762.208C818.075,789.038,771.124,815.867,724.173,843.814C716.348,848.286,711.876,848.286,704.051,843.814C624.681,797.981,545.31,752.147,465.94,706.314C427.932,685.074,388.806,662.716,348.562,639.24C348.562,639.24,348.562,639.24,348.562,639.24M658.217,881.822C655.981,884.058,654.864,885.176,653.746,885.176C609.03,910.887,564.315,936.599,519.599,962.31C511.774,966.782,507.302,963.428,501.713,960.075C387.688,894.119,273.663,828.164,159.639,762.208C156.285,759.972,152.931,757.737,147.342,754.383C151.813,751.029,155.167,748.794,158.521,747.676C201,723.082,242.362,699.606,284.842,675.013C292.667,670.541,298.257,671.659,304.964,675.013C418.989,742.086,533.014,808.042,647.038,875.115C650.392,876.233,653.746,878.469,658.217,881.822C658.217,881.822,658.217,881.822,658.217,881.822M119.394,706.314C119.394,704.078,118.277,701.842,118.277,700.724C118.277,565.46,118.277,430.195,118.277,294.93C118.277,290.459,122.748,283.751,127.22,281.516C168.582,256.922,211.061,232.329,253.541,208.853C256.895,207.735,259.131,205.499,263.602,203.263C263.602,206.617,264.72,209.971,264.72,212.206C264.72,346.353,264.72,480.5,264.72,614.647C264.72,620.236,260.249,626.944,255.777,630.297C213.297,656.009,170.817,679.484,127.22,704.078C124.984,704.078,122.748,705.196,119.394,706.314C119.394,706.314,119.394,706.314,119.394,706.314" class="icon-producto"/><glyph unicode="&#x0067;" d="M633.83,512.366C633.83,512.366,999.564,878.099,999.564,878.099C1032.812,911.348,1032.812,966.047,999.564,999.295C966.315,1032.544,911.616,1032.544,878.368,999.295C878.368,999.295,512.634,633.562,512.634,633.562C512.634,633.562,146.901,999.295,146.901,999.295C113.652,1032.544,58.953,1032.544,25.705,999.295C9.08,982.671,0.5,960.684,0.5,938.697C0.5,916.711,9.08,894.724,25.705,878.099C25.705,878.099,391.438,512.366,391.438,512.366C391.438,512.366,25.705,146.632,25.705,146.632C9.08,130.008,0.5,108.021,0.5,86.034C0.5,64.048,9.08,42.061,25.705,25.436C58.953,-7.812,113.652,-7.812,146.901,25.436C146.901,25.436,512.634,391.17,512.634,391.17C512.634,391.17,878.368,25.436,878.368,25.436C911.616,-7.812,966.315,-7.812,999.564,25.436C1032.812,58.685,1032.812,113.384,999.564,146.632C999.564,146.632,633.83,512.366,633.83,512.366C633.83,512.366,633.83,512.366,633.83,512.366" class="icon-close"/><glyph unicode="&#x0068;" d="M512,1024C229.169,1024,0,794.831,0,512C0,229.169,229.169,0,512,0C794.831,0,1024,229.169,1024,512C1024,794.831,794.831,1024,512,1024C512,1024,512,1024,512,1024M641.723,326.646C641.723,326.646,512,456.369,512,456.369C512,456.369,382.277,326.646,382.277,326.646C367.015,311.385,341.908,311.385,326.646,326.646C319.015,334.277,315.077,344.369,315.077,354.462C315.077,364.554,319.015,374.646,326.646,382.277C326.646,382.277,456.369,512,456.369,512C456.369,512,326.646,641.723,326.646,641.723C319.015,649.354,315.077,659.446,315.077,669.538C315.077,679.631,319.015,689.723,326.646,697.354C341.908,712.615,367.015,712.615,382.277,697.354C382.277,697.354,512,567.631,512,567.631C512,567.631,641.723,697.354,641.723,697.354C656.985,712.615,682.092,712.615,697.354,697.354C712.615,682.092,712.615,656.985,697.354,641.723C697.354,641.723,567.631,512,567.631,512C567.631,512,697.354,382.277,697.354,382.277C712.615,367.015,712.615,341.908,697.354,326.646C682.092,311.138,656.985,311.138,641.723,326.646C641.723,326.646,641.723,326.646,641.723,326.646" class="icon-close-circle"/><glyph unicode="&#x0069;" d="M697.354,382.277C697.354,382.277,567.631,512,567.631,512C567.631,512,697.354,641.723,697.354,641.723C712.615,656.985,712.615,682.092,697.354,697.354C682.092,712.615,656.985,712.615,641.723,697.354C641.723,697.354,512,567.631,512,567.631C512,567.631,382.277,697.354,382.277,697.354C367.015,712.615,343.877,714.831,326.646,697.354C309.169,679.877,311.877,656.492,326.646,641.723C326.646,641.723,456.369,512,456.369,512C456.369,512,326.646,382.277,326.646,382.277C310.154,365.785,310.892,342.154,326.646,326.646C342.4,310.892,367.015,311.385,382.277,326.646C382.277,326.646,512,456.369,512,456.369C512,456.369,641.723,326.646,641.723,326.646C656.985,311.385,682.092,311.385,697.354,326.646C712.862,341.908,712.862,367.015,697.354,382.277C697.354,382.277,697.354,382.277,697.354,382.277M512,955.077C630.4,955.077,741.662,909.046,825.354,825.354C909.046,741.662,955.077,630.4,955.077,512C955.077,393.6,909.046,282.338,825.354,198.646C741.662,114.954,630.4,68.923,512,68.923C393.6,68.923,282.338,114.954,198.646,198.646C114.954,282.338,68.923,393.6,68.923,512C68.923,630.4,114.954,741.662,198.646,825.354C282.338,909.046,393.6,955.077,512,955.077M512,1024C229.169,1024,0,794.831,0,512C0,229.169,229.169,0,512,0C794.831,0,1024,229.169,1024,512C1024,794.831,794.831,1024,512,1024C512,1024,512,1024,512,1024" class="icon-close-circle-outline"/><glyph unicode="&#x006a;" d="M512,1024C247.385,1024,29.785,823.385,2.954,565.908C0.985,548.185,0,530.215,0,512C0,493.785,0.985,475.815,2.954,458.092C29.785,200.615,247.385,0,512,0C794.831,0,1024,229.169,1024,512C1024,794.831,794.831,1024,512,1024C512,1024,512,1024,512,1024M846.277,221.292C790.4,242.462,699.815,273.477,643.446,290.215C637.538,291.938,636.8,292.431,636.8,316.554C636.8,336.492,644.923,356.677,653.046,373.908C661.908,392.369,672,423.631,675.692,451.692C686.031,463.754,700.308,487.385,709.169,532.677C717.046,572.554,713.354,587.077,708.185,600.615C707.692,602.092,706.954,603.569,706.708,604.8C704.738,614.154,707.446,662.646,714.338,700.308C719.015,726.154,713.108,781.046,677.662,826.585C655.262,855.385,612.185,890.585,533.662,895.508C533.662,895.508,490.585,895.508,490.585,895.508C413.292,890.585,370.462,855.385,347.815,826.585C312.123,781.046,306.215,726.154,310.892,700.308C317.785,662.646,320.492,614.154,318.523,604.8C318.031,603.077,317.538,601.846,317.046,600.369C311.877,586.831,307.938,572.308,316.062,532.431C325.169,487.138,339.2,463.508,349.538,451.446C353.231,423.385,363.569,392.369,372.185,373.662C378.585,360.123,381.538,341.662,381.538,315.569C381.538,291.2,380.554,290.954,375.138,289.231C316.8,272,230.154,241.477,178.215,220.8C107.323,301.785,68.923,403.938,68.923,512C68.923,630.4,114.954,741.662,198.646,825.354C282.338,909.046,393.6,955.077,512,955.077C630.4,955.077,741.662,909.046,825.354,825.354C909.046,741.662,955.077,630.4,955.077,512C955.077,403.938,916.677,301.785,846.277,221.292C846.277,221.292,846.277,221.292,846.277,221.292" class="icon-contact"/><glyph unicode="&#x006b;" d="M850.782,901.036C850.782,901.036,389.17,439.424,389.17,439.424C385.742,435.997,383.914,431.426,383.914,426.627C383.914,426.627,383.914,366.069,383.914,366.069C383.914,356.015,392.141,348.016,401.967,348.016C401.967,348.016,462.068,348.016,462.068,348.016C466.867,348.016,471.666,349.844,475.094,353.272C475.094,353.272,936.934,814.884,936.934,814.884C944.018,821.968,944.018,833.394,936.934,840.478C936.934,840.478,876.376,901.036,876.376,901.036C869.292,908.12,857.866,908.12,850.782,901.036C850.782,901.036,850.782,901.036,850.782,901.036M1013.717,944.455C1013.717,944.455,980.81,977.362,980.81,977.362C980.81,977.362,980.353,977.819,980.353,977.819C973.268,983.989,963.899,987.873,954.073,987.873C944.018,987.873,934.649,983.989,927.564,977.59C927.564,977.59,901.742,951.539,901.742,951.539C898.314,947.882,898.314,942.169,901.742,938.742C901.742,938.742,925.508,914.975,925.508,914.975C925.508,914.975,975.097,865.387,975.097,865.387C978.753,861.73,984.466,861.73,988.122,865.387C988.122,865.387,1013.945,891.209,1013.945,891.209C1020.344,898.293,1024,907.434,1024,917.718C1023.771,927.773,1020.115,937.37,1013.717,944.455C1013.717,944.455,1013.717,944.455,1013.717,944.455M498.175,316.023C491.319,309.168,481.95,305.283,472.352,305.283C472.352,305.283,377.744,305.283,377.744,305.283C357.634,305.283,341.181,321.736,341.181,341.846C341.181,341.846,341.181,436.682,341.181,436.682C341.181,446.28,345.066,455.649,351.921,462.505C351.921,462.505,353.75,464.333,353.75,464.333C353.75,464.333,691.046,801.629,691.046,801.629C696.759,807.342,692.645,817.169,684.647,817.169C684.647,817.169,134.141,817.169,134.141,817.169C60.101,817.169,0,757.068,0,683.027C0,683.027,0,171.141,0,171.141C0,97.101,60.101,37,134.141,37C134.141,37,719.154,37,719.154,37C793.194,37,853.295,97.101,853.295,171.141C853.295,171.141,853.295,648.749,853.295,648.749C853.295,656.976,843.469,660.861,837.756,655.148C837.756,655.148,500.003,317.852,500.003,317.852C500.003,317.852,498.175,316.023,498.175,316.023C498.175,316.023,498.175,316.023,498.175,316.023" class="icon-create"/><glyph unicode="&#x006c;" d="M655.48,770.56C655.48,770.56,888.44,770.56,888.44,770.56C895.608,770.56,901.24,776.192,901.24,783.36C901.24,806.144,891.256,827.648,873.848,841.984C873.848,841.984,678.52,1004.8,678.52,1004.8C663.672,1017.088,645.24,1023.744,625.784,1023.744C615.288,1023.744,606.84,1015.296,606.84,1004.8C606.84,1004.8,606.84,819.2,606.84,819.2C606.84,792.32,628.6,770.56,655.48,770.56C655.48,770.56,655.48,770.56,655.48,770.56M540.28,819.2C540.28,819.2,540.28,1024,540.28,1024C540.28,1024,204.92,1024,204.92,1024C159.864,1024,123,987.136,123,942.08C123,942.08,123,81.92,123,81.92C123,36.864,159.864,0,204.92,0C204.92,0,819.32,0,819.32,0C864.376,0,901.24,36.864,901.24,81.92C901.24,81.92,901.24,704,901.24,704C901.24,704,655.48,704,655.48,704C591.992,704,540.28,755.712,540.28,819.2C540.28,819.2,540.28,819.2,540.28,819.2" class="icon-document"/><glyph unicode="&#x006d;" d="M807.731,787.692C807.731,787.692,544.346,787.692,544.346,787.692C544.346,787.692,544.346,344.862,544.346,344.862C544.346,344.862,662.254,461.046,662.254,461.046C674.808,473.354,694.992,473.354,707.546,460.8C719.854,448.246,719.854,428.062,707.3,415.508C707.3,415.508,534.992,245.662,534.992,245.662C528.838,239.754,520.715,236.554,512.592,236.554C508.408,236.554,504.223,237.292,500.285,239.015C496.592,240.492,493.146,242.954,490.192,245.662C490.192,245.662,317.885,415.508,317.885,415.508C305.331,427.815,305.085,448.246,317.638,460.8C329.946,473.354,350.377,473.6,362.931,461.046C362.931,461.046,480.838,344.862,480.838,344.862C480.838,344.862,480.838,787.692,480.838,787.692C480.838,787.692,216.962,787.692,216.962,787.692C162.808,787.692,118.5,743.385,118.5,689.231C118.5,689.231,118.5,98.462,118.5,98.462C118.5,44.308,162.808,0,216.962,0C216.962,0,807.731,0,807.731,0C861.885,0,906.192,44.308,906.192,98.462C906.192,98.462,906.192,689.231,906.192,689.231C906.192,743.385,861.885,787.692,807.731,787.692C807.731,787.692,807.731,787.692,807.731,787.692M544.346,992C544.346,1009.723,530.069,1024,512.346,1024C494.623,1024,480.346,1009.723,480.346,992C480.346,992,480.346,787.692,480.346,787.692C480.346,787.692,544.346,787.692,544.346,787.692C544.346,787.692,544.346,992,544.346,992C544.346,992,544.346,992,544.346,992" class="icon-download"/><glyph unicode="&#x006e;" d="M236.308,807.238C236.308,807.238,236.308,543.854,236.308,543.854C236.308,543.854,679.138,543.854,679.138,543.854C679.138,543.854,562.954,661.762,562.954,661.762C550.646,674.315,550.646,694.5,563.2,707.054C575.754,719.362,595.938,719.362,608.492,706.808C608.492,706.808,778.338,534.5,778.338,534.5C784.246,528.346,787.446,520.223,787.446,512.1C787.446,507.915,786.708,503.731,784.985,499.792C783.508,496.1,781.046,492.654,778.338,489.7C778.338,489.7,608.492,317.392,608.492,317.392C596.185,304.838,575.754,304.592,563.2,317.146C550.646,329.454,550.4,349.885,562.954,362.438C562.954,362.438,679.138,480.346,679.138,480.346C679.138,480.346,236.308,480.346,236.308,480.346C236.308,480.346,236.308,216.962,236.308,216.962C236.308,162.808,280.615,118.5,334.769,118.5C334.769,118.5,925.538,118.5,925.538,118.5C979.692,118.5,1024,162.808,1024,216.962C1024,216.962,1024,807.238,1024,807.238C1024,861.392,979.692,905.7,925.538,905.7C925.538,905.7,334.769,905.7,334.769,905.7C280.615,905.7,236.308,861.392,236.308,807.238C236.308,807.238,236.308,807.238,236.308,807.238M32,543.854C14.277,543.854,0,529.577,0,511.854C0,494.131,14.277,479.854,32,479.854C32,479.854,236.308,479.854,236.308,479.854C236.308,479.854,236.308,543.854,236.308,543.854C236.308,543.854,32,543.854,32,543.854C32,543.854,32,543.854,32,543.854" class="icon-exit"/><glyph unicode="&#x006f;" d="M511.451,841.24C327.692,841.24,182.788,725.591,9.543,536.575C-3.028,522.634,-3.256,501.835,9.314,487.893C157.647,324.019,288.381,183,511.451,183C731.779,183,897.024,360.588,1014.502,489.264C1026.615,502.521,1027.301,522.634,1015.645,536.575C895.881,681.708,730.179,841.24,511.451,841.24C511.451,841.24,511.451,841.24,511.451,841.24M521.507,306.649C400.373,301.163,300.723,400.813,306.437,521.719C311.236,627.312,396.716,712.792,502.309,717.591C623.443,723.077,723.093,623.427,717.38,502.521C712.58,396.928,627.1,311.448,521.507,306.649C521.507,306.649,521.507,306.649,521.507,306.649M511.908,619.541C511.908,633.254,514.422,646.282,518.993,658.167C516.708,658.167,514.422,658.396,511.908,658.396C427.571,658.396,359.69,586.629,366.09,500.921C371.575,429.383,429.171,371.787,500.709,366.302C586.417,359.902,658.184,427.783,658.184,512.12C658.184,515.091,657.955,518.062,657.955,521.034C645.156,515.32,631.214,512.12,616.358,512.12C558.762,512.12,511.908,560.345,511.908,619.541C511.908,619.541,511.908,619.541,511.908,619.541" class="icon-eye"/><glyph unicode="&#x0070;" d="M0,927.736C0,913.459,4.923,899.675,13.785,889.09C13.785,889.09,388.431,446.505,388.431,446.505C397.292,435.921,402.215,422.136,402.215,407.859C402.215,407.859,402.215,144.475,402.215,144.475C402.215,119.859,416.738,98.198,438.154,90.321C438.154,90.321,573.538,41.582,573.538,41.582C597.169,32.967,621.785,52.167,621.785,79.244C621.785,79.244,621.785,408.105,621.785,408.105C621.785,422.382,626.708,436.167,635.569,446.752C635.569,446.752,1010.215,889.336,1010.215,889.336C1019.077,899.921,1024,913.705,1024,927.982C1024,959.49,1000.369,985.09,971.323,985.09C971.323,985.09,52.677,985.09,52.677,985.09C23.631,984.844,0,959.244,0,927.736C0,927.736,0,927.736,0,927.736" class="icon-funnel"/><glyph unicode="&#x0071;" d="M512,1024C229.169,1024,0,794.831,0,512C0,229.169,229.169,0,512,0C794.831,0,1024,229.169,1024,512C1024,794.831,794.831,1024,512,1024C512,1024,512,1024,512,1024M689.231,649.846C721.969,649.846,748.308,623.508,748.308,590.769C748.308,558.031,721.969,531.692,689.231,531.692C656.492,531.692,630.154,558.031,630.154,590.769C630.154,623.508,656.492,649.846,689.231,649.846C689.231,649.846,689.231,649.846,689.231,649.846M334.769,649.846C367.508,649.846,393.846,623.508,393.846,590.769C393.846,558.031,367.508,531.692,334.769,531.692C302.031,531.692,275.692,558.031,275.692,590.769C275.692,623.508,302.031,649.846,334.769,649.846C334.769,649.846,334.769,649.846,334.769,649.846M512,233.846C401.969,233.846,309.415,307.446,280.123,407.877C276.431,420.431,285.785,433.231,299.077,433.231C299.077,433.231,724.677,433.231,724.677,433.231C737.723,433.231,747.323,420.677,743.631,407.877C714.585,307.446,622.031,233.846,512,233.846C512,233.846,512,233.846,512,233.846" class="icon-happy"/><glyph unicode="&#x0072;" d="M512,1024C229.169,1024,0,794.831,0,512C0,229.169,229.169,0,512,0C794.831,0,1024,229.169,1024,512C1024,794.831,794.831,1024,512,1024C512,1024,512,1024,512,1024M501.415,275.692C472.369,275.692,448.738,297.846,448.738,326.4C448.738,354.708,472.369,377.108,501.415,377.108C530.708,377.108,554.338,354.954,554.338,326.4C554.338,297.846,530.954,275.692,501.415,275.692C501.415,275.692,501.415,275.692,501.415,275.692M600.369,514.215C557.538,489.354,543.015,471.138,543.015,439.631C543.015,439.631,543.015,420.185,543.015,420.185C543.015,420.185,457.6,420.185,457.6,420.185C457.6,420.185,456.862,441.354,456.862,441.354C452.677,492.062,470.4,523.569,514.954,549.662C556.554,574.523,574.031,590.277,574.031,620.8C574.031,651.323,544.492,673.723,507.815,673.723C470.646,673.723,443.815,649.6,441.846,613.169C441.846,613.169,354.462,613.169,354.462,613.169C356.185,692.431,414.769,748.554,513.723,748.554C606.031,748.554,669.538,697.354,669.538,623.754C669.538,574.769,645.908,541.046,600.369,514.215C600.369,514.215,600.369,514.215,600.369,514.215" class="icon-help-circle"/><glyph unicode="&#x0073;" d="M512,955.077C630.4,955.077,741.662,909.046,825.354,825.354C909.046,741.662,955.077,630.4,955.077,512C955.077,393.6,909.046,282.338,825.354,198.646C741.662,114.954,630.4,68.923,512,68.923C393.6,68.923,282.338,114.954,198.646,198.646C114.954,282.338,68.923,393.6,68.923,512C68.923,630.4,114.954,741.662,198.646,825.354C282.338,909.046,393.6,955.077,512,955.077M512,1024C229.169,1024,0,794.831,0,512C0,229.169,229.169,0,512,0C794.831,0,1024,229.169,1024,512C1024,794.831,794.831,1024,512,1024C512,1024,512,1024,512,1024M513.723,748.308C606.031,748.308,669.538,697.108,669.538,623.508C669.538,574.769,645.908,541.046,600.369,514.215C557.538,489.354,543.015,471.138,543.015,439.631C543.015,439.631,543.015,420.185,543.015,420.185C543.015,420.185,457.6,420.185,457.6,420.185C457.6,420.185,456.862,441.354,456.862,441.354C452.677,492.062,470.4,523.569,514.954,549.662C556.554,574.523,574.031,590.277,574.031,620.8C574.031,651.323,544.492,673.723,507.815,673.723C470.646,673.723,443.815,649.6,441.846,613.169C441.846,613.169,354.462,613.169,354.462,613.169C356.185,692.431,414.769,748.308,513.723,748.308C513.723,748.308,513.723,748.308,513.723,748.308M448.985,326.4C448.985,354.708,472.615,377.108,501.662,377.108C530.954,377.108,554.585,354.954,554.585,326.4C554.585,297.846,530.954,275.692,501.662,275.692C472.369,275.692,448.985,297.846,448.985,326.4C448.985,326.4,448.985,326.4,448.985,326.4" class="icon-help-circle-outline"/><glyph unicode="&#x0074;" d="M512,1024C229.169,1024,0,794.831,0,512C0,229.169,229.169,0,512,0C794.831,0,1024,229.169,1024,512C1024,794.831,794.831,1024,512,1024C512,1024,512,1024,512,1024M558.769,275.692C558.769,275.692,464.738,275.692,464.738,275.692C464.738,275.692,464.738,630.4,464.738,630.4C464.738,630.4,558.769,630.4,558.769,630.4C558.769,630.4,558.769,275.692,558.769,275.692C558.769,275.692,558.769,275.692,558.769,275.692M511.754,669.046C483.938,669.046,461.292,690.215,461.292,718.277C461.292,746.338,484.185,767.262,511.754,767.262C539.815,767.262,562.708,746.338,562.708,718.277C562.708,690.215,539.815,669.046,511.754,669.046C511.754,669.046,511.754,669.046,511.754,669.046" class="icon-ios-information-circle"/><glyph unicode="&#x0075;" d="M461.292,718.277C461.292,746.338,484.185,767.262,511.754,767.262C539.815,767.262,562.708,746.338,562.708,718.277C562.708,690.215,539.815,669.046,511.754,669.046C484.185,669.046,461.292,690.215,461.292,718.277C461.292,718.277,461.292,718.277,461.292,718.277M464.738,630.4C464.738,630.4,558.769,630.4,558.769,630.4C558.769,630.4,558.769,275.692,558.769,275.692C558.769,275.692,464.738,275.692,464.738,275.692C464.738,275.692,464.738,630.4,464.738,630.4C464.738,630.4,464.738,630.4,464.738,630.4M512,955.077C630.4,955.077,741.662,909.046,825.354,825.354C909.046,741.662,955.077,630.4,955.077,512C955.077,393.6,909.046,282.338,825.354,198.646C741.662,114.954,630.4,68.923,512,68.923C393.6,68.923,282.338,114.954,198.646,198.646C114.954,282.338,68.923,393.6,68.923,512C68.923,630.4,114.954,741.662,198.646,825.354C282.338,909.046,393.6,955.077,512,955.077M512,1024C229.169,1024,0,794.831,0,512C0,229.169,229.169,0,512,0C794.831,0,1024,229.169,1024,512C1024,794.831,794.831,1024,512,1024C512,1024,512,1024,512,1024" class="icon-information-circle-outline"/><glyph unicode="&#x0076;" d="M1015.631,780.031C1015.631,780.031,750.769,510.246,750.769,510.246C748.8,508.277,748.8,505.323,750.769,503.354C750.769,503.354,936.123,305.938,936.123,305.938C948.677,293.385,948.677,273.2,936.123,260.646C929.969,254.492,921.6,251.292,913.477,251.292C905.354,251.292,896.985,254.492,890.831,260.646C890.831,260.646,706.215,457.323,706.215,457.323C704.246,459.292,701.046,459.292,699.077,457.323C699.077,457.323,654.031,411.538,654.031,411.538C616.369,373.385,566.4,352.215,512.738,351.969C458.338,351.723,406.646,374.615,368.492,413.262C368.492,413.262,325.169,457.323,325.169,457.323C323.2,459.292,320,459.292,318.031,457.323C318.031,457.323,133.415,260.646,133.415,260.646C127.262,254.492,118.892,251.292,110.769,251.292C102.646,251.292,94.277,254.492,88.123,260.646C75.569,273.2,75.569,293.385,88.123,305.938C88.123,305.938,273.477,503.354,273.477,503.354C275.2,505.323,275.2,508.277,273.477,510.246C273.477,510.246,8.369,780.031,8.369,780.031C5.169,783.231,0,781.015,0,776.585C0,776.585,0,236.769,0,236.769C0,193.446,35.446,158,78.769,158C78.769,158,945.231,158,945.231,158C988.554,158,1024,193.446,1024,236.769C1024,236.769,1024,776.585,1024,776.585C1024,781.015,1018.585,782.985,1015.631,780.031C1015.631,780.031,1015.631,780.031,1015.631,780.031M512,416.215C548.431,416.215,582.646,430.492,608.246,456.585C608.246,456.585,994.462,849.692,994.462,849.692C980.923,860.523,964.185,866.923,945.723,866.923C945.723,866.923,78.523,866.923,78.523,866.923C60.062,866.923,43.077,860.523,29.785,849.692C29.785,849.692,416,456.585,416,456.585C441.354,430.738,475.569,416.215,512,416.215C512,416.215,512,416.215,512,416.215" class="icon-mail"/><glyph unicode="&#x0077;" d="M570.802,302.878C570.802,302.878,567.85,302.632,567.85,302.632C558.993,301.648,550.628,297.711,544.231,291.56C544.231,291.56,385.292,132.621,385.292,132.621C351.585,98.914,306.56,80.462,258.583,80.462C210.606,80.462,165.582,98.914,131.875,132.621C98.168,166.328,79.716,211.352,79.716,259.329C79.716,307.306,98.168,352.331,131.875,386.038C131.875,386.038,300.655,554.818,300.655,554.818C309.267,563.429,318.616,571.056,328.704,577.699C340.021,585.08,352.323,591.477,365.117,596.152C376.926,600.581,389.474,603.533,402.022,605.255C410.387,606.486,418.999,606.978,427.118,606.978C430.562,606.978,434.007,606.732,438.435,606.486C481.984,603.779,523.072,585.327,553.58,554.818C572.525,535.873,587.041,512.746,595.652,487.65C602.541,467.968,623.208,456.896,643.137,462.801C643.383,462.801,643.629,463.047,643.875,463.047C644.121,463.047,644.367,463.047,644.367,463.293C664.296,469.444,675.86,490.357,670.201,510.286C659.375,548.667,640.185,580.898,609.676,611.16C571.295,649.542,521.349,674.637,467.96,683.249C463.285,683.987,458.61,684.725,453.936,685.217C444.832,686.201,435.729,686.693,426.626,686.693C420.229,686.693,413.832,686.447,407.681,685.955C394.395,684.971,381.109,683.003,367.823,679.804C365.117,679.312,362.656,678.574,359.95,677.836C343.466,673.407,327.227,667.502,311.973,659.875C286.631,647.327,263.75,631.089,243.821,610.914C243.821,610.914,75.041,442.134,75.041,442.134C26.818,393.173,0,328.219,0,258.837C0,189.455,26.818,124.502,75.533,75.787C124.248,27.318,189.201,0.5,258.337,0.5C327.719,0.5,392.673,27.318,441.388,76.033C441.388,76.033,602.049,236.694,602.049,236.694C627.637,262.528,606.97,306.322,570.802,302.878C570.802,302.878,570.802,302.878,570.802,302.878M947.975,948.475C899.26,997.19,834.307,1024.008,765.171,1024.008C696.035,1024.008,630.835,997.19,582.12,948.475C582.12,948.475,425.395,791.75,425.395,791.75C401.53,767.885,416.538,727.043,450.245,724.337C461.809,723.352,473.126,727.535,481.492,735.654C481.492,735.654,638.462,892.133,638.462,892.133C672.169,925.84,717.194,944.292,765.171,944.292C813.148,944.292,858.172,925.84,891.879,892.133C925.586,858.426,944.038,813.401,944.038,765.425C944.038,717.448,925.586,672.423,891.879,638.716C891.879,638.716,723.099,469.936,723.099,469.936C714.487,461.325,705.138,453.698,695.05,447.055C683.733,439.673,671.431,433.277,658.637,428.602C646.827,424.173,634.28,421.221,621.732,419.499C613.367,418.268,604.755,417.776,596.636,417.776C593.192,417.776,589.501,418.022,585.319,418.268C541.77,420.975,500.682,439.427,470.174,469.936C452.213,487.896,438.681,509.302,429.824,532.675C422.689,551.62,402.514,561.953,382.831,556.786C360.934,551.128,348.14,528,355.029,506.349C366.101,471.904,384.8,442.626,413.34,414.086C413.34,414.086,413.832,413.594,413.832,413.594C455.412,372.014,510.77,345.688,569.572,339.537C578.676,338.553,587.779,338.061,596.882,338.061C603.279,338.061,609.676,338.307,616.073,338.799C632.065,340.029,648.058,342.735,663.558,346.672C680.042,351.101,696.281,357.006,711.535,364.633C736.877,377.18,759.758,393.419,779.687,413.594C779.687,413.594,948.467,582.374,948.467,582.374C997.182,631.089,1024,696.043,1024,765.425C1024,834.807,996.69,899.76,947.975,948.475C947.975,948.475,947.975,948.475,947.975,948.475" class="icon-link"/><glyph unicode="&#x0078;" d="M910.222,947.647C910.222,947.647,217.662,947.647,217.662,947.647C154.837,947.647,103.884,896.695,103.884,833.87C103.884,814.824,119.467,799.242,138.512,799.242C157.557,799.242,173.14,814.824,173.14,833.87C173.14,858.357,193.175,878.391,217.662,878.391C217.662,878.391,910.222,878.391,910.222,878.391C934.709,878.391,954.744,858.357,954.744,833.87C954.744,833.87,954.744,190.778,954.744,190.778C954.744,166.291,934.709,146.256,910.222,146.256C910.222,146.256,217.662,146.256,217.662,146.256C193.175,146.256,173.14,166.291,173.14,190.778C173.14,209.823,157.557,225.406,138.512,225.406C119.467,225.406,103.884,209.823,103.884,190.778C103.884,127.953,154.837,77,217.662,77C217.662,77,910.222,77,910.222,77C973.047,77,1024,127.953,1024,190.778C1024,190.778,1024,833.87,1024,833.87C1024,896.695,973.047,947.647,910.222,947.647C910.222,947.647,910.222,947.647,910.222,947.647M432.85,318.901C419.494,305.545,419.494,283.531,432.85,269.928C432.85,269.928,433.098,269.68,433.098,269.68C439.776,263.497,448.433,260.034,457.337,260.034C466.736,260.034,475.393,263.497,481.824,270.175C481.824,270.175,686.129,473.986,686.129,473.986C696.765,484.621,702.207,496.988,702.207,510.345C702.207,523.454,696.518,535.821,686.129,546.21C686.129,546.21,476.877,754.967,476.877,754.967C470.446,761.398,461.789,765.108,452.39,765.108C443.239,765.108,434.334,761.645,427.903,754.967C414.3,741.363,414.3,719.597,427.903,705.993C427.903,705.993,589.171,547.199,589.171,547.199C589.171,547.199,34.628,547.199,34.628,547.199C15.583,547.199,0,531.616,0,512.571C0,493.526,15.583,477.943,34.628,477.943C34.628,477.943,590.16,477.943,590.16,477.943C590.16,477.943,432.85,318.901,432.85,318.901C432.85,318.901,432.85,318.901,432.85,318.901" class="icon-log-in"/><glyph unicode="&#x0079;" d="M650.002,226.728C631.044,226.728,615.533,211.216,615.533,192.258C615.533,167.883,595.589,147.94,571.214,147.94C571.214,147.94,113.258,147.94,113.258,147.94C88.883,147.94,68.94,167.883,68.94,192.258C68.94,192.258,68.94,832.412,68.94,832.412C68.94,856.787,88.883,876.73,113.258,876.73C113.258,876.73,571.214,876.73,571.214,876.73C595.589,876.73,615.533,856.787,615.533,832.412C615.533,813.453,631.044,797.942,650.002,797.942C668.961,797.942,684.472,813.453,684.472,832.412C684.472,894.95,633.752,945.67,571.214,945.67C571.214,945.67,113.258,945.67,113.258,945.67C50.72,945.67,0,894.95,0,832.412C0,832.412,0,192.258,0,192.258C0,129.72,50.72,79,113.258,79C113.258,79,571.214,79,571.214,79C633.752,79,684.472,129.72,684.472,192.258C684.472,211.216,668.961,226.728,650.002,226.728C650.002,226.728,650.002,226.728,650.002,226.728M799.946,753.377C793.545,759.779,784.927,763.472,775.571,763.472C766.461,763.472,757.597,760.025,751.196,753.377C737.654,739.836,737.654,718.169,751.196,704.627C751.196,704.627,911.727,546.559,911.727,546.559C911.727,546.559,280.683,546.559,280.683,546.559C261.724,546.559,246.213,531.047,246.213,512.089C246.213,493.13,261.724,477.619,280.683,477.619C280.683,477.619,912.465,477.619,912.465,477.619C912.465,477.619,755.874,319.796,755.874,319.796C742.579,306.501,742.579,284.588,755.874,271.046C755.874,271.046,756.12,270.8,756.12,270.8C762.768,264.645,771.385,261.198,780.249,261.198C789.605,261.198,798.223,264.645,804.624,271.292C804.624,271.292,1007.996,474.172,1007.996,474.172C1018.583,484.759,1024,497.07,1024,510.365C1024,523.415,1018.337,535.725,1007.996,546.066C1007.996,546.066,799.946,753.377,799.946,753.377C799.946,753.377,799.946,753.377,799.946,753.377" class="icon-log-out"/><glyph unicode="&#x007a;" d="M512,1024C229.169,1024,0,794.831,0,512C0,229.169,229.169,0,512,0C794.831,0,1024,229.169,1024,512C1024,794.831,794.831,1024,512,1024C512,1024,512,1024,512,1024M512,196.923C512,196.923,512,512,512,512C512,512,197.662,512,197.662,512C197.662,512,748.308,748.308,748.308,748.308C748.308,748.308,512,196.923,512,196.923C512,196.923,512,196.923,512,196.923" class="icon-navigate"/><glyph unicode="&#x0030;" d="M981.333,725.5C981.333,725.5,42.667,725.5,42.667,725.5C19.2,725.5,0,744.7,0,768.167C0,791.633,19.2,810.833,42.667,810.833C42.667,810.833,981.333,810.833,981.333,810.833C1004.8,810.833,1024,791.633,1024,768.167C1024,744.7,1004.8,725.5,981.333,725.5C981.333,725.5,981.333,725.5,981.333,725.5M981.333,469.5C981.333,469.5,42.667,469.5,42.667,469.5C19.2,469.5,0,488.7,0,512.167C0,535.633,19.2,554.833,42.667,554.833C42.667,554.833,981.333,554.833,981.333,554.833C1004.8,554.833,1024,535.633,1024,512.167C1024,488.7,1004.8,469.5,981.333,469.5C981.333,469.5,981.333,469.5,981.333,469.5M981.333,213.5C981.333,213.5,42.667,213.5,42.667,213.5C19.2,213.5,0,232.7,0,256.167C0,279.633,19.2,298.833,42.667,298.833C42.667,298.833,981.333,298.833,981.333,298.833C1004.8,298.833,1024,279.633,1024,256.167C1024,232.7,1004.8,213.5,981.333,213.5C981.333,213.5,981.333,213.5,981.333,213.5" class="icon-menu"/><glyph unicode="&#x0031;" d="M511.847,0.5C591.443,0.5,634.951,56.806,634.951,136.145C634.951,136.145,388.487,136.145,388.487,136.145C388.487,56.806,431.995,0.5,511.847,0.5C511.847,0.5,511.847,0.5,511.847,0.5M911.36,266.16C871.947,318.115,794.398,348.571,794.398,581.215C794.398,820.002,688.954,915.977,590.675,939.011C581.461,941.315,574.807,944.386,574.807,954.111C574.807,954.111,574.807,961.534,574.807,961.534C574.807,995.829,546.654,1024.749,512.359,1024.493C478.064,1025.005,449.911,995.829,449.911,961.534C449.911,961.534,449.911,954.111,449.911,954.111C449.911,944.642,443.257,941.315,434.043,939.011C335.508,915.721,230.319,820.002,230.319,581.215C230.319,348.571,152.771,318.37,113.357,266.16C88.02,232.632,112.077,184.773,154.051,184.773C154.051,184.773,870.923,184.773,870.923,184.773C912.64,184.773,936.698,232.888,911.36,266.16C911.36,266.16,911.36,266.16,911.36,266.16" class="icon-notifications"/><glyph unicode="&#x0032;" d="M512.215,19.692C588.769,19.692,630.615,73.846,630.615,150.154C630.615,150.154,393.569,150.154,393.569,150.154C393.569,73.846,435.415,19.692,512.215,19.692C512.215,19.692,512.215,19.692,512.215,19.692M262.615,1006.769C256.461,1017.354,245.384,1023.508,234.061,1024C234.061,1024,234.8,1024,234.8,1024C234.8,1024,231.846,1024,231.846,1024C226.184,1024,220.277,1022.277,214.861,1019.323C198.123,1009.723,192.461,988.308,202.308,971.815C202.308,971.815,762.308,17.231,762.308,17.231C768.708,6.154,780.523,0,792.584,0C798.492,0,804.646,1.477,810.308,4.677C827.046,14.277,832.708,35.692,822.861,52.185C822.861,52.185,262.615,1006.769,262.615,1006.769C262.615,1006.769,262.615,1006.769,262.615,1006.769M611.169,196.923C611.169,196.923,273.692,771.692,273.692,771.692C253.508,721.969,240.954,658.462,240.954,578.215C240.954,354.462,166.369,325.415,128.461,275.2C104.092,242.954,127.231,196.923,167.6,196.923C167.6,196.923,611.169,196.923,611.169,196.923C611.169,196.923,611.169,196.923,611.169,196.923M896.461,275.2C858.554,325.169,783.969,354.462,783.969,578.215C783.969,807.877,682.554,900.185,588.031,922.338C579.169,924.554,572.769,927.508,572.769,936.862C572.769,936.862,572.769,944,572.769,944C572.769,976.985,545.692,1004.8,512.708,1004.554C479.723,1005.046,452.646,976.985,452.646,944C452.646,944,452.646,936.862,452.646,936.862C452.646,927.754,446.246,924.554,437.384,922.338C415.969,917.415,394.308,908.8,373.631,895.754C373.631,895.754,783.477,196.923,783.477,196.923C783.477,196.923,857.077,196.923,857.077,196.923C897.692,196.923,920.831,243.2,896.461,275.2C896.461,275.2,896.461,275.2,896.461,275.2" class="icon-notifications-off"/><glyph unicode="&#x0033;" d="M619.085,216.846C634.346,251.554,669.054,275.923,709.423,275.923C749.792,275.923,784.5,251.554,799.762,216.846C799.762,216.846,985.115,216.846,985.115,216.846C1006.777,216.846,1024.5,199.123,1024.5,177.462C1024.5,155.8,1006.777,138.077,985.115,138.077C985.115,138.077,799.762,138.077,799.762,138.077C784.5,103.369,749.792,79,709.423,79C669.054,79,634.346,103.369,619.085,138.077C619.085,138.077,39.885,138.077,39.885,138.077C18.223,138.077,0.5,155.8,0.5,177.462C0.5,199.123,18.223,216.846,39.885,216.846C39.885,216.846,619.085,216.846,619.085,216.846C619.085,216.846,619.085,216.846,619.085,216.846M225.238,551.615C240.5,586.323,275.208,610.692,315.577,610.692C355.946,610.692,390.654,586.323,405.915,551.615C405.915,551.615,985.115,551.615,985.115,551.615C1006.777,551.615,1024.5,533.892,1024.5,512.231C1024.5,490.569,1006.777,472.846,985.115,472.846C985.115,472.846,405.915,472.846,405.915,472.846C390.654,438.138,355.946,413.769,315.577,413.769C275.208,413.769,240.5,438.138,225.238,472.846C225.238,472.846,39.885,472.846,39.885,472.846C18.223,472.846,0.5,490.569,0.5,512.231C0.5,533.892,18.223,551.615,39.885,551.615C39.885,551.615,225.238,551.615,225.238,551.615C225.238,551.615,225.238,551.615,225.238,551.615M619.085,886.385C634.346,921.092,669.054,945.462,709.423,945.462C749.792,945.462,784.5,921.092,799.762,886.385C799.762,886.385,985.115,886.385,985.115,886.385C1006.777,886.385,1024.5,868.662,1024.5,847C1024.5,825.338,1006.777,807.615,985.115,807.615C985.115,807.615,799.762,807.615,799.762,807.615C784.5,772.908,749.792,748.538,709.423,748.538C669.054,748.538,634.346,772.908,619.085,807.615C619.085,807.615,39.885,807.615,39.885,807.615C18.223,807.615,0.5,825.338,0.5,847C0.5,868.662,18.223,886.385,39.885,886.385C39.885,886.385,619.085,886.385,619.085,886.385C619.085,886.385,619.085,886.385,619.085,886.385" class="icon-options"/><glyph unicode="&#x0034;" d="M512.462,1024C316.769,1024,158,876.554,158,694.892C158,438.892,512.462,0,512.462,0C512.462,0,866.923,438.892,866.923,694.892C866.923,876.554,708.154,1024,512.462,1024C512.462,1024,512.462,1024,512.462,1024M512.462,554.092C448.708,554.092,397.015,605.785,397.015,669.538C397.015,733.292,448.708,784.985,512.462,784.985C576.215,784.985,627.908,733.292,627.908,669.538C627.908,605.785,576.215,554.092,512.462,554.092C512.462,554.092,512.462,554.092,512.462,554.092" class="icon-pin"/><glyph unicode="&#x0035;" d="M512,1024C229.169,1024,0,794.831,0,512C0,229.169,229.169,0,512,0C794.831,0,1024,229.169,1024,512C1024,794.831,794.831,1024,512,1024C512,1024,512,1024,512,1024M718.277,502.4C718.277,502.4,380.554,298.092,380.554,298.092C373.415,293.662,364.062,299.077,364.062,307.692C364.062,307.692,364.062,716.308,364.062,716.308C364.062,724.923,373.169,730.338,380.554,725.908C380.554,725.908,718.277,521.6,718.277,521.6C725.415,517.415,725.415,506.585,718.277,502.4C718.277,502.4,718.277,502.4,718.277,502.4" class="icon-play-circle"/><glyph unicode="&#x0036;" d="M512,955.077C630.4,955.077,741.662,909.046,825.354,825.354C909.046,741.662,955.077,630.4,955.077,512C955.077,393.6,909.046,282.338,825.354,198.646C741.662,114.954,630.4,68.923,512,68.923C393.6,68.923,282.338,114.954,198.646,198.646C114.954,282.338,68.923,393.6,68.923,512C68.923,630.4,114.954,741.662,198.646,825.354C282.338,909.046,393.6,955.077,512,955.077M512,1024C229.169,1024,0,794.831,0,512C0,229.169,229.169,0,512,0C794.831,0,1024,229.169,1024,512C1024,794.831,794.831,1024,512,1024C512,1024,512,1024,512,1024" class="icon-radio-button-off"/><glyph unicode="&#x0037;" d="M512,955.077C630.4,955.077,741.662,909.046,825.354,825.354C909.046,741.662,955.077,630.4,955.077,512C955.077,393.6,909.046,282.338,825.354,198.646C741.662,114.954,630.4,68.923,512,68.923C393.6,68.923,282.338,114.954,198.646,198.646C114.954,282.338,68.923,393.6,68.923,512C68.923,630.4,114.954,741.662,198.646,825.354C282.338,909.046,393.6,955.077,512,955.077M512,1024C229.169,1024,0,794.831,0,512C0,229.169,229.169,0,512,0C794.831,0,1024,229.169,1024,512C1024,794.831,794.831,1024,512,1024C512,1024,512,1024,512,1024M776.615,776.615C705.969,847.262,611.938,886.154,512,886.154C412.062,886.154,318.031,847.262,247.385,776.615C176.738,705.969,137.846,611.938,137.846,512C137.846,412.062,176.738,318.031,247.385,247.385C318.031,176.738,412.062,137.846,512,137.846C611.938,137.846,705.969,176.738,776.615,247.385C847.262,318.031,886.154,412.062,886.154,512C886.154,611.938,847.262,705.969,776.615,776.615C776.615,776.615,776.615,776.615,776.615,776.615" class="icon-radio-button-on"/><glyph unicode="&#x0038;" d="M512,1024C229.169,1024,0,794.831,0,512C0,229.169,229.169,0,512,0C794.831,0,1024,229.169,1024,512C1024,794.831,794.831,1024,512,1024C512,1024,512,1024,512,1024M512,196.677C337.969,196.677,196.923,337.723,196.923,512C196.923,686.277,337.969,827.323,512,827.323C512,827.323,512,918.4,512,918.4C512,934.154,529.477,943.508,542.523,934.892C542.523,934.892,721.969,805.415,721.969,805.415C734.031,797.292,733.538,779.323,720.985,771.938C720.985,771.938,541.538,657.969,541.538,657.969C528.492,650.338,512,659.938,512,674.954C512,674.954,512,778.092,512,778.092C363.569,778.092,243.2,655.754,245.908,506.831C248.615,361.354,369.723,244.185,515.446,245.908C653.046,247.631,766.031,353.477,777.108,489.6C778.092,502.4,788.677,512,801.477,512C815.754,512,827.077,499.938,825.846,485.662C812.554,323.2,677.169,196.677,512,196.677C512,196.677,512,196.677,512,196.677" class="icon-refresh-circle"/><glyph unicode="&#x0039;" d="M916.947,437.038C899.347,437.038,884.261,423.552,882.889,405.952C867.117,216.005,707.343,67.887,513.053,67.887C308.477,67.887,141.844,233.377,141.844,436.81C141.844,637.043,303.219,800.703,503.452,805.732C508.71,805.961,512.824,801.846,512.824,796.589C512.824,796.589,512.824,681.615,512.824,681.615C512.824,652.814,544.596,635.443,569.054,650.757C569.054,650.757,788.944,804.589,788.944,804.589C811.802,818.989,811.802,852.133,788.944,866.533C788.944,866.533,569.282,1018.308,569.282,1018.308C544.825,1033.623,513.053,1016.251,513.053,987.45C513.053,987.45,513.053,882.991,513.053,882.991C513.053,877.962,509.167,873.848,504.138,873.848C265.504,869.048,73.5,675.215,73.5,436.81C73.5,195.433,270.304,0,513.053,0C743.458,0,932.262,175.318,951.005,400.237C952.834,420.124,936.833,437.038,916.947,437.038C916.947,437.038,916.947,437.038,916.947,437.038" class="icon-refresh"/><glyph unicode="&#x0021;" d="M734.769,551.385C734.769,551.385,289.231,551.385,289.231,551.385C267.569,551.385,249.846,536.615,249.846,512C249.846,487.385,268.308,472.615,289.231,472.615C289.231,472.615,734.769,472.615,734.769,472.615C756.431,472.615,774.154,490.338,774.154,512C774.154,533.662,756.431,551.385,734.769,551.385C734.769,551.385,734.769,551.385,734.769,551.385M512,955.077C630.4,955.077,741.662,909.046,825.354,825.354C909.046,741.662,955.077,630.4,955.077,512C955.077,393.6,909.046,282.338,825.354,198.646C741.662,114.954,630.4,68.923,512,68.923C393.6,68.923,282.338,114.954,198.646,198.646C114.954,282.338,68.923,393.6,68.923,512C68.923,630.4,114.954,741.662,198.646,825.354C282.338,909.046,393.6,955.077,512,955.077M512,1024C229.169,1024,0,794.831,0,512C0,229.169,229.169,0,512,0C794.831,0,1024,229.169,1024,512C1024,794.831,794.831,1024,512,1024C512,1024,512,1024,512,1024" class="icon-remove-circle-outline"/><glyph unicode="&#x0022;" d="M512,1024C229.169,1024,0,794.831,0,512C0,229.169,229.169,0,512,0C794.831,0,1024,229.169,1024,512C1024,794.831,794.831,1024,512,1024C512,1024,512,1024,512,1024M734.769,472.615C734.769,472.615,289.231,472.615,289.231,472.615C268.308,472.615,249.846,487.385,249.846,512C249.846,536.615,267.569,551.385,289.231,551.385C289.231,551.385,734.769,551.385,734.769,551.385C756.431,551.385,774.154,533.662,774.154,512C774.154,490.338,756.431,472.615,734.769,472.615C734.769,472.615,734.769,472.615,734.769,472.615" class="icon-remove-circle"/><glyph unicode="&#x0023;" d="M726.933,775.008C726.933,775.008,637.333,864.075,637.333,864.075C628,873.408,614.667,877.142,601.067,873.675C597.867,872.875,594.667,871.542,591.733,869.675C579.2,861.942,572.533,848.875,573.6,834.742C574.133,825.675,578.667,817.142,585.067,810.475C585.067,810.475,627.733,768.075,627.733,768.075C627.733,768.075,208,768.075,208,768.075C152.533,768.075,100.533,746.475,61.067,707.008C21.6,667.808,0,615.808,0,560.342C0,560.342,0,517.675,0,517.675C0,497.142,16.8,480.342,37.333,480.342C57.867,480.342,74.667,497.142,74.667,517.675C74.667,517.675,74.667,560.342,74.667,560.342C74.667,595.808,88.533,629.142,113.867,654.475C139.2,679.808,172.533,693.675,208,693.675C208,693.675,622.4,693.675,622.4,693.675C622.4,693.675,579.733,651.275,579.733,651.275C573.333,644.875,569.067,636.875,568.267,628.075C567.2,616.875,571.2,605.942,579.2,597.942C586.133,591.008,595.733,587.008,605.6,587.008C615.467,587.008,624.8,590.742,632,597.942C632,597.942,726.933,692.342,726.933,692.342C738.133,703.275,744.267,718.208,744.267,733.675C744,749.408,737.867,764.075,726.933,775.008C726.933,775.008,726.933,775.008,726.933,775.008M986.667,544.342C966.133,544.342,949.333,527.542,949.333,507.008C949.333,507.008,949.333,464.342,949.333,464.342C949.333,428.875,935.467,395.542,910.133,370.208C884.8,344.875,851.467,331.008,816,331.008C816,331.008,401.6,331.008,401.6,331.008C401.6,331.008,444.267,373.408,444.267,373.408C450.667,379.808,454.933,387.808,455.733,396.875C456.8,408.075,452.8,419.008,444.8,427.008C437.867,433.942,428.267,437.942,418.4,437.942C408.533,437.942,399.2,434.208,392,427.008C392,427.008,297.067,332.608,297.067,332.608C285.867,321.675,279.733,306.742,279.733,291.275C279.733,275.542,285.867,260.875,297.067,249.942C297.067,249.942,386.667,160.875,386.667,160.875C396,151.542,409.333,147.808,422.933,151.275C426.133,152.075,429.333,153.408,432.267,155.275C444.8,163.008,451.467,176.075,450.4,190.208C449.867,199.275,445.333,207.808,438.933,214.475C438.933,214.475,396.267,256.875,396.267,256.875C396.267,256.875,816,256.875,816,256.875C930.667,256.875,1024,350.208,1024,464.875C1024,464.875,1024,507.542,1024,507.542C1024,527.542,1007.2,544.342,986.667,544.342C986.667,544.342,986.667,544.342,986.667,544.342" class="icon-repeat"/><glyph unicode="&#x0024;" d="M1012.237,74.114C1012.237,74.114,727.511,361.506,727.511,361.506C783.229,431.354,816.821,519.865,816.821,616.106C816.821,841.381,634.202,1024,408.66,1024C183.119,1024,0.5,841.114,0.5,615.84C0.5,390.565,183.119,207.946,408.66,207.946C506.235,207.946,595.545,242.07,665.927,299.122C665.927,299.122,948.786,13.596,948.786,13.596C957.317,4.532,969.048,0,980.511,0C991.442,0,1002.372,3.999,1010.637,11.997C1028.232,28.793,1028.766,56.519,1012.237,74.114C1012.237,74.114,1012.237,74.114,1012.237,74.114M408.66,295.656C323.083,295.656,242.57,328.981,182.053,389.499C121.535,450.016,88.21,530.529,88.21,615.84C88.21,701.417,121.535,781.93,182.053,842.181C242.57,902.698,323.083,936.023,408.66,936.023C494.238,936.023,574.75,902.698,635.268,842.181C695.786,781.663,729.11,701.151,729.11,615.84C729.11,530.262,695.786,449.75,635.268,389.499C574.75,328.981,494.238,295.656,408.66,295.656C408.66,295.656,408.66,295.656,408.66,295.656" class="icon-search"/><glyph unicode="&#x0025;" d="M992.226,1022.092C992.226,1022.092,13.206,595.388,13.206,595.388C-4.129,587.12,-3.596,562.318,14.006,554.584C14.006,554.584,278.829,404.971,278.829,404.971C294.564,396.17,314.032,398.037,327.634,409.771C327.634,409.771,849.813,859.944,849.813,859.944C853.28,862.878,861.547,868.478,864.748,865.278C868.215,861.811,862.881,853.81,859.947,850.343C859.947,850.343,408.174,341.498,408.174,341.498C395.64,327.364,393.773,306.562,403.907,290.561C403.907,290.561,576.989,12.936,576.989,12.936C585.523,-3.865,609.792,-3.599,617.526,13.47C617.526,13.47,1022.362,992.489,1022.362,992.489C1031.162,1011.691,1011.161,1031.159,992.226,1022.092C992.226,1022.092,992.226,1022.092,992.226,1022.092" class="icon-send"/><glyph unicode="&#x0026;" d="M985.143,658.714C985.143,658.714,648.914,658.714,648.914,658.714C648.914,658.714,546.743,963.629,546.743,963.629C541.714,978.486,527.771,987.857,512,987.857C496.229,987.857,482.286,978.486,477.257,963.629C477.257,963.629,375.086,658.714,375.086,658.714C375.086,658.714,36.571,658.714,36.571,658.714C16.457,658.714,0,642.257,0,622.143C0,620.086,0.229,617.8,0.686,615.971C1.143,607.971,4.8,599.057,16,590.143C16,590.143,292.343,395.4,292.343,395.4C292.343,395.4,186.286,87.057,186.286,87.057C181.029,72.2,186.286,55.514,198.857,45.914C205.486,41.114,211.657,37,219.429,37C226.971,37,235.886,40.886,242.286,45.229C242.286,45.229,512,237.457,512,237.457C512,237.457,781.714,45.229,781.714,45.229C788.114,40.657,797.029,37,804.571,37C812.343,37,818.514,40.886,824.914,45.914C837.714,55.514,842.743,71.971,837.486,87.057C837.486,87.057,731.429,395.4,731.429,395.4C731.429,395.4,1005.486,591.971,1005.486,591.971C1005.486,591.971,1012.114,597.686,1012.114,597.686C1018.057,604.086,1024,612.771,1024,622.143C1024,642.257,1005.257,658.714,985.143,658.714C985.143,658.714,985.143,658.714,985.143,658.714" class="icon-star"/><glyph unicode="&#x0027;" d="M985.143,658.714C985.143,658.714,648.914,658.714,648.914,658.714C648.914,658.714,546.743,963.629,546.743,963.629C541.714,978.486,527.771,987.857,512,987.857C496.229,987.857,482.286,978.486,477.257,963.629C477.257,963.629,375.086,658.714,375.086,658.714C375.086,658.714,36.571,658.714,36.571,658.714C16.457,658.714,0,642.257,0,622.143C0,620.086,0.229,617.8,0.686,615.971C1.143,607.971,4.8,599.057,16,590.143C16,590.143,292.343,395.4,292.343,395.4C292.343,395.4,186.286,87.057,186.286,87.057C181.029,72.2,186.286,55.514,198.857,45.914C205.486,41.114,211.657,37,219.429,37C226.971,37,235.886,40.886,242.286,45.229C242.286,45.229,512,237.457,512,237.457C512,237.457,781.714,45.229,781.714,45.229C788.114,40.657,797.029,37,804.571,37C812.343,37,818.514,40.886,824.914,45.914C837.714,55.514,842.743,71.971,837.486,87.057C837.486,87.057,731.429,395.4,731.429,395.4C731.429,395.4,1005.486,591.971,1005.486,591.971C1005.486,591.971,1012.114,597.686,1012.114,597.686C1018.057,604.086,1024,612.771,1024,622.143C1024,642.257,1005.257,658.714,985.143,658.714C985.143,658.714,985.143,658.714,985.143,658.714M694.4,447.286C671.543,430.829,661.943,401.114,671.086,374.6C671.086,374.6,739.886,174.143,739.886,174.143C742.857,165.686,733.257,158.6,725.943,163.629C725.943,163.629,549.029,289.8,549.029,289.8C537.829,297.8,524.8,301.686,511.771,301.686C498.743,301.686,485.714,297.8,474.743,289.8C474.743,289.8,297.829,163.857,297.829,163.857C290.514,158.6,280.914,165.914,283.886,174.371C283.886,174.371,352.686,374.829,352.686,374.829C361.829,401.8,352.229,431.514,329.143,447.971C329.143,447.971,144,578.486,144,578.486C136.686,583.514,140.343,595.171,149.257,595.171C149.257,595.171,374.857,595.171,374.857,595.171C402.286,595.171,426.743,612.771,435.429,638.829C435.429,638.829,503.086,840.429,503.086,840.429C505.829,848.657,517.714,848.657,520.457,840.429C520.457,840.429,588.114,638.829,588.114,638.829C596.8,612.771,621.257,595.171,648.686,595.171C648.686,595.171,871.086,595.171,871.086,595.171C880,595.171,883.657,583.743,876.343,578.714C876.343,578.714,694.4,447.286,694.4,447.286C694.4,447.286,694.4,447.286,694.4,447.286" class="icon-star-outline"/><glyph unicode="&#x0028;" d="M320.333,0C320.333,0,448.333,0,448.333,0C460.067,0,469.667,9.6,469.667,21.333C469.667,21.333,469.667,1002.667,469.667,1002.667C469.667,1014.4,460.067,1024,448.333,1024C448.333,1024,320.333,1024,320.333,1024C308.6,1024,299,1014.4,299,1002.667C299,1002.667,299,21.333,299,21.333C299,9.6,308.6,0,320.333,0C320.333,0,320.333,0,320.333,0M64.333,0C64.333,0,192.333,0,192.333,0C204.067,0,213.667,9.6,213.667,21.333C213.667,21.333,213.667,405.333,213.667,405.333C213.667,417.067,204.067,426.667,192.333,426.667C192.333,426.667,64.333,426.667,64.333,426.667C52.6,426.667,43,417.067,43,405.333C43,405.333,43,21.333,43,21.333C43,9.6,52.6,0,64.333,0C64.333,0,64.333,0,64.333,0M576.6,0C576.6,0,704.067,0,704.067,0C716.067,0,725.667,9.6,725.667,21.6C725.667,21.6,725.667,575.733,725.667,575.733C725.667,587.733,716.067,597.333,704.067,597.333C704.067,597.333,576.6,597.333,576.6,597.333C564.6,597.333,555,587.733,555,575.733C555,575.733,555,21.6,555,21.6C555,9.6,564.6,0,576.6,0C576.6,0,576.6,0,576.6,0M811,831.733C811,831.733,811,21.6,811,21.6C811,9.6,820.6,0,832.6,0C832.6,0,960.067,0,960.067,0C972.067,0,981.667,9.6,981.667,21.6C981.667,21.6,981.667,831.733,981.667,831.733C981.667,843.733,972.067,853.333,960.067,853.333C960.067,853.333,832.6,853.333,832.6,853.333C820.6,853.333,811,843.733,811,831.733C811,831.733,811,831.733,811,831.733" class="icon-stats"/><glyph unicode="&#x0029;" d="M511.754,984.794C229.059,984.794,0,799.776,0,571.455C0,411.777,112.192,273.259,276.298,204.37C263.504,140.892,224.63,88.733,193.876,55.518C188.217,49.367,194.368,39.526,202.733,40.018C231.027,41.986,283.679,50.843,328.211,71.264C381.109,95.622,427.364,145.321,442.126,162.051C465.007,159.591,488.381,158.115,512.246,158.115C794.941,158.115,1024,343.134,1024,571.455C1023.508,799.776,794.449,984.794,511.754,984.794C511.754,984.794,511.754,984.794,511.754,984.794" class="icon-text"/><glyph unicode="&#x002a;" d="M1015.992,510.021C1010.445,515.568,1003.191,518.555,995.511,518.555C987.83,518.555,980.576,515.568,975.029,510.021C975.029,510.021,947.294,482.285,947.294,482.285C956.468,614.135,905.691,743.639,807.976,834.313C727.757,908.772,622.789,949.735,512.7,949.735C455.735,949.735,400.051,938.854,347.567,917.519C293.163,895.331,244.519,862.901,203.129,820.871C174.967,792.283,150.645,760.067,131.444,725.291C127.39,718.037,126.536,709.503,128.883,701.609C131.23,693.715,136.991,687.101,144.245,683.474C148.512,681.341,153.205,680.274,157.899,680.274C168.993,680.274,179.021,686.248,184.354,695.848C201.209,726.357,222.331,754.52,247.079,779.268C282.922,815.111,324.525,842.847,371.036,861.835C416.052,880.183,463.629,889.357,512.273,889.357C561.13,889.357,608.707,880.183,653.724,861.835C700.235,842.847,742.051,815.111,777.894,779.055C821.204,735.531,853.42,681.767,871.341,623.309C886.276,574.452,890.969,522.395,885.422,471.404C885.422,471.404,845.099,510.874,845.099,510.874C839.765,515.994,832.725,518.981,825.258,518.981C817.79,518.981,810.536,515.994,805.203,510.661C794.109,499.566,794.109,481.645,805.203,470.551C805.203,470.551,896.517,379.024,896.517,379.024C900.57,374.97,905.904,372.837,911.451,372.837C916.998,372.837,922.332,374.97,926.385,379.024C926.385,379.024,1016.206,469.057,1016.206,469.057C1027.3,480.365,1027.3,498.713,1015.992,510.021C1015.992,510.021,1015.992,510.021,1015.992,510.021M880.729,341.901C876.462,344.034,871.768,345.101,867.074,345.101C855.98,345.101,845.953,339.127,840.619,329.527C823.764,299.017,802.643,270.855,777.894,246.107C742.051,210.264,700.448,182.315,653.724,163.54C608.707,145.192,561.13,136.018,512.273,136.018C463.416,136.018,415.839,145.192,371.036,163.54C324.525,182.528,282.709,210.264,246.866,246.107C166.646,326.753,127.39,440.042,139.551,553.117C139.551,553.117,178.807,513.648,178.807,513.648C183.928,508.527,190.755,505.754,198.009,505.754C205.263,505.754,212.09,508.527,217.21,513.648C217.21,513.648,219.984,516.421,219.984,516.421C230.438,526.875,230.438,544.157,219.984,554.611C219.984,554.611,128.457,646.351,128.457,646.351C124.403,650.405,119.069,652.538,113.522,652.538C107.975,652.538,102.641,650.405,98.588,646.351C98.588,646.351,8.981,556.104,8.981,556.104C-2.327,544.797,-2.327,526.449,8.981,515.141C14.528,509.594,21.782,506.607,29.462,506.607C37.143,506.607,44.397,509.594,49.944,515.141C49.944,515.141,77.679,543.09,77.679,543.09C73.839,488.046,80.453,432.148,96.881,379.877C118.002,312.885,154.059,253.361,204.196,203.223C245.799,161.407,294.23,129.191,348.42,107.002C400.691,85.667,455.949,75,512.487,75C569.024,75,624.282,85.881,676.553,107.002C730.744,128.978,779.174,161.407,820.777,203.223C849.58,232.026,874.115,264.668,893.743,300.084C897.797,307.338,898.65,315.872,896.303,323.766C893.743,331.66,888.196,338.274,880.729,341.901C880.729,341.901,880.729,341.901,880.729,341.901" class="icon-sync"/><glyph unicode="&#x002b;" d="M512,1024C229.169,1024,0,794.831,0,512C0,229.169,229.169,0,512,0C794.831,0,1024,229.169,1024,512C1024,794.831,794.831,1024,512,1024C512,1024,512,1024,512,1024M546.462,467.692C546.462,448.738,530.954,433.231,512,433.231C512,433.231,275.692,433.231,275.692,433.231C256.738,433.231,241.231,448.738,241.231,467.692C241.231,486.646,256.738,502.154,275.692,502.154C275.692,502.154,477.538,502.154,477.538,502.154C477.538,502.154,477.538,827.077,477.538,827.077C477.538,846.031,493.046,861.538,512,861.538C530.954,861.538,546.462,846.031,546.462,827.077C546.462,827.077,546.462,467.692,546.462,467.692C546.462,467.692,546.462,467.692,546.462,467.692" class="icon-time"/><glyph unicode="&#x002c;" d="M184.267,853.333C184.267,853.333,247.2,78.133,247.2,78.133C247.2,34.933,282.133,0,325.333,0C325.333,0,701.333,0,701.333,0C744.533,0,779.467,34.933,779.467,78.133C779.467,78.133,841.6,853.333,841.6,853.333C841.6,853.333,184.267,853.333,184.267,853.333C184.267,853.333,184.267,853.333,184.267,853.333M348.533,146.667C348.533,146.667,330.667,768,330.667,768C330.667,768,380,768,380,768C380,768,398.4,146.667,398.4,146.667C398.4,146.667,348.533,146.667,348.533,146.667C348.533,146.667,348.533,146.667,348.533,146.667M536,146.667C536,146.667,488,146.667,488,146.667C488,146.667,488,768,488,768C488,768,536,768,536,768C536,768,536,146.667,536,146.667C536,146.667,536,146.667,536,146.667M675.467,146.667C675.467,146.667,625.867,146.667,625.867,146.667C625.867,146.667,644,768,644,768C644,768,693.333,768,693.333,768C693.333,768,675.467,146.667,675.467,146.667C675.467,146.667,675.467,146.667,675.467,146.667M800,949.333C800,949.333,704,949.333,704,949.333C704,949.333,633.867,1010.667,633.867,1010.667C624,1019.2,611.467,1024,598.667,1024C598.667,1024,425.867,1024,425.867,1024C412.8,1024,400,1019.2,390.133,1010.667C390.133,1010.667,320,949.333,320,949.333C320,949.333,224,949.333,224,949.333C177.067,949.333,144,926.933,144,880C144,880,880,880,880,880C880,926.933,846.933,949.333,800,949.333C800,949.333,800,949.333,800,949.333" class="icon-trash"/><glyph unicode="&#x002d;" d="M1023.543,194.553C1023.543,239.343,1033.141,416.446,893.743,557.214C801.421,650.222,683.733,698.212,520.341,706.895C515.542,707.124,511.657,711.237,511.657,716.036C511.657,716.036,511.657,905.023,511.657,905.023C511.657,912.335,503.659,916.677,497.489,912.792C497.489,912.792,4.113,587.836,4.113,587.836C-1.371,584.18,-1.371,576.182,4.113,572.525C4.113,572.525,497.489,247.569,497.489,247.569C503.659,243.456,511.657,247.798,511.657,255.339C511.657,255.339,511.657,441.812,511.657,441.812C511.657,447.068,515.999,451.181,521.255,450.952C622.033,447.068,680.077,426.044,743.148,397.936C825.644,360.915,909.74,281.619,959.1,207.121C989.036,161.646,1002.976,129.653,1008.004,116.399C1009.603,112.514,1013.26,110,1017.373,110C1017.373,110,1024,110,1024,110C1023.771,136.737,1023.543,171.015,1023.543,194.553C1023.543,194.553,1023.543,194.553,1023.543,194.553" class="icon-undo"/><glyph unicode="&#x002e;" d="M445.243,945.488C445.243,945.488,9.354,150.01,9.354,150.01C-18.212,100.293,18.461,39.5,76.054,39.5C76.054,39.5,948.077,39.5,948.077,39.5C1005.425,39.5,1042.097,100.293,1014.777,150.01C1014.777,150.01,578.643,945.488,578.643,945.488C549.846,997.667,474.039,997.667,445.243,945.488C445.243,945.488,445.243,945.488,445.243,945.488M555.261,615.434C555.261,615.434,546.4,315.161,546.4,315.161C546.4,315.161,477.485,315.161,477.485,315.161C477.485,315.161,468.625,615.434,468.625,615.434C468.625,615.434,555.261,615.434,555.261,615.434C555.261,615.434,555.261,615.434,555.261,615.434M511.943,151.733C485.607,151.733,464.933,171.669,464.933,197.02C464.933,222.371,485.607,242.308,511.943,242.308C538.278,242.308,558.953,222.371,558.953,197.02C558.953,171.669,538.278,151.733,511.943,151.733C511.943,151.733,511.943,151.733,511.943,151.733" class="icon-warning"/><glyph unicode="&#x002f;" d="M1017.352,726.524C1017.352,816.536,951.143,888.947,869.332,888.947C758.517,894.148,645.502,896.148,530.086,896.148C530.086,896.148,494.081,896.148,494.081,896.148C378.865,896.148,265.649,894.148,154.834,888.947C73.223,888.947,7.014,816.136,7.014,726.124C2.013,654.915,-0.188,583.705,0.012,512.495C-0.188,441.285,2.013,370.076,6.814,298.666C6.814,208.653,73.023,135.643,154.634,135.643C271.05,130.243,390.466,127.843,511.883,128.043C633.5,127.643,752.516,130.043,869.132,135.643C950.943,135.643,1017.152,208.653,1017.152,298.666C1021.953,370.076,1024.154,441.285,1023.954,512.695C1024.354,583.905,1022.153,655.115,1017.352,726.524C1017.352,726.524,1017.352,726.524,1017.352,726.524M414.069,316.268C414.069,316.268,414.069,709.322,414.069,709.322C414.069,709.322,704.11,512.896,704.11,512.896C704.11,512.896,414.069,316.268,414.069,316.268C414.069,316.268,414.069,316.268,414.069,316.268" class="icon-youtube"/><glyph unicode="&#x005b;" d="M775.385,460.308C775.385,460.308,563.692,460.308,563.692,460.308C563.692,460.308,563.692,248.615,563.692,248.615C563.692,248.615,460.308,248.615,460.308,248.615C460.308,248.615,460.308,460.308,460.308,460.308C460.308,460.308,248.615,460.308,248.615,460.308C248.615,460.308,248.615,563.692,248.615,563.692C248.615,563.692,460.308,563.692,460.308,563.692C460.308,563.692,460.308,775.385,460.308,775.385C460.308,775.385,563.692,775.385,563.692,775.385C563.692,775.385,563.692,563.692,563.692,563.692C563.692,563.692,775.385,563.692,775.385,563.692C775.385,563.692,775.385,460.308,775.385,460.308C775.385,460.308,775.385,460.308,775.385,460.308M512,920.615C621.046,920.615,723.692,878.031,800.985,800.985C878.031,723.692,920.615,621.046,920.615,512C920.615,402.954,878.031,300.308,800.985,223.015C723.692,145.969,621.046,103.385,512,103.385C402.954,103.385,300.308,145.969,223.015,223.015C145.969,300.308,103.385,402.954,103.385,512C103.385,621.046,145.969,723.692,223.015,800.985C300.308,878.031,402.954,920.615,512,920.615M512,1024C229.169,1024,0,794.831,0,512C0,229.169,229.169,0,512,0C794.831,0,1024,229.169,1024,512C1024,794.831,794.831,1024,512,1024C512,1024,512,1024,512,1024" class="icon-add-circle-outline"/><glyph unicode="&#x005c;" d="M512,1024C229.231,1024,0,794.769,0,512C0,229.231,229.231,0,512,0C794.769,0,1024,229.231,1024,512C1024,794.769,794.769,1024,512,1024C512,1024,512,1024,512,1024M775.385,460.308C775.385,460.308,563.692,460.308,563.692,460.308C563.692,460.308,563.692,248.615,563.692,248.615C563.692,248.615,460.308,248.615,460.308,248.615C460.308,248.615,460.308,460.308,460.308,460.308C460.308,460.308,248.615,460.308,248.615,460.308C248.615,460.308,248.615,563.692,248.615,563.692C248.615,563.692,460.308,563.692,460.308,563.692C460.308,563.692,460.308,775.385,460.308,775.385C460.308,775.385,563.692,775.385,563.692,775.385C563.692,775.385,563.692,563.692,563.692,563.692C563.692,563.692,775.385,563.692,775.385,563.692C775.385,563.692,775.385,460.308,775.385,460.308C775.385,460.308,775.385,460.308,775.385,460.308" class="icon-add-circle"/><glyph unicode="&#x005e;" d="M512,1024C230.4,1024,0,793.598,0,512C0,230.402,230.4,0,512,0C793.6,0,1024,230.402,1024,512C1024,793.598,793.6,1024,512,1024C512,1024,512,1024,512,1024M571.077,256C571.077,256,452.923,256,452.923,256C452.923,256,452.923,354.462,452.923,354.462C452.923,354.462,571.077,354.462,571.077,354.462C571.077,354.462,571.077,256,571.077,256C571.077,256,571.077,256,571.077,256M571.077,472.615C571.077,472.615,452.923,472.615,452.923,472.615C452.923,472.615,452.923,787.692,452.923,787.692C452.923,787.692,571.077,787.692,571.077,787.692C571.077,787.692,571.077,472.615,571.077,472.615C571.077,472.615,571.077,472.615,571.077,472.615" class="icon-md-alert"/><glyph unicode="&#x005f;" d="M998.385,895.998C998.385,895.998,918.747,992.734,918.747,992.734C904.539,1012.61,878.974,1024,853.327,1024C853.327,1024,170.671,1024,170.671,1024C145.031,1024,119.468,1012.61,105.253,992.734C105.253,992.734,25.62,895.998,25.62,895.998C8.537,878.959,0,853.329,0,824.896C0,824.896,0,113.782,0,113.782C0,51.2,51.2,0,113.785,0C113.785,0,910.223,0,910.223,0C972.805,0,1024,51.2,1024,113.785C1024,113.785,1024,824.898,1024,824.898C1024,853.329,1015.476,878.959,998.385,895.998C998.385,895.998,998.385,895.998,998.385,895.998M512,199.116C512,199.116,199.114,512,199.114,512C199.114,512,398.228,512,398.228,512C398.228,512,398.228,625.782,398.228,625.782C398.228,625.782,625.78,625.782,625.78,625.782C625.78,625.782,625.78,512,625.78,512C625.78,512,824.894,512,824.894,512C824.894,512,512,199.116,512,199.116C512,199.116,512,199.116,512,199.116M119.468,910.225C119.468,910.225,164.972,967.114,164.972,967.114C164.972,967.114,847.633,967.114,847.633,967.114C847.633,967.114,901.701,910.225,901.701,910.225C901.701,910.225,119.468,910.225,119.468,910.225C119.468,910.225,119.468,910.225,119.468,910.225" class="icon-md-archive"/></font>
</defs>
</svg>
